Lucifer avengers dtone GOTHAM elementary s06e15 Salvation Upgrade Who Is America deadpool 2 ettv photoshop Upgrade 2018 Power hindi avengers infinity war better call saul s04e02 Wentworth Preacher s03e08 sharp objects s01e06 ballers LESBIAN ANAL SEX SLAVES The flash talking dead wwe evo jurassic world shooter deadpool BETTER CALL SAUL elementary Voltron the 100 judge judy S22 ethd survivor big bang theory español 2018 ita cloak and dagger arrow español suits wwe raw mr robot en español sharp objects star trek discovery español jack irish fear the walking dead preacher fgt infinity war etrg the walking dead S.W.A.T.2017.S01E01.HDTV.x264 KILLERS ettv  ddr Condor 1080p Dtone etmovies unforgotten Arrow deadpool 2 2018 westworld street outlaws Queen of the south 
Warning! Use a VPN When Downloading Torrents!
Your IP Address is 54.225.55.174. Location is United States
Your Internet Provider is tracking your torrent activity! Hide your IP ADDRESS with a VPN!
We strongly recommend using ExpressVPN to anonymize your torrenting. 30 Day Money Back Guarantee!
Try it Now!
ETTV Recommended TV Shows
Better.Call.Saul.S04E02.HDTV.x264-SVA[ettv] torrent
Australian.Survivor.S05E08.WEBRip+1080p.HDTV.h264-CRR torrent
Animal.Kingdom.US.S03E12.WEBRip.x264-TBS[ettv] torrent
Castle.Rock.S01E06.WEBRip.x264-PBS[ettv] torrent

ETTV Recommended Xvid
Upgrade.2018.HDRip.XViD-ETRG torrent
American.Animals.2018.HDRip.XviD.AC3-EVO[EtMovies] torrent
Adrift.2018.HDRip.XviD.AC3-EVO torrent
First.Reformed.2018.BDRip.XviD.AC3-EVO torrent

ETTV Recommended HD
The.Last.Warrior.2018.BluRay.1080p.x264.DTS-HDMA.5.1-DTOne torrent
The.Avengers.2012.Multi.Bluray.2160p.x265.HDR.Atmos.7.1-DTOne torrent
Upgrade.2018.1080p.WEB-DL.DD5.1.H264-CMRG[EtHD] torrent
American.Animals.2018.1080p.WEB-DL.DD5.1.H264-CMRG[EtHD] torrent

ETTV Recommended Cam
Slenderman.2018.HDCAM.XViD.AC3-ETRG torrent
The.Spy.Who.Dumped.Me.2018.HDCAM.XViD.AC3-ETRG torrent
The Equalizer 2 2018 HDTS XViD AC3-ETRG torrent
Mission Impossible Fallout 2018 NEW 720p HDCAM-24HD torrent

ETTV Recommended Foreign
The.Leakers.2018.BluRay.1080p.x264.TrueHD.5.1-DTOne torrent
Deadpool.2.2018.The.Super.Duper.Cut.Multi.1080p.Blu-ray.x264.DTS-HDMA.7.1-DTOne torrent
Jumanji.Welcome.To.The.Jungle.(2017).1080p.[Dual.Audio].[Org.DD].{Hindi+Eng.6Ch}.-~{DOOMSDAY}~-. torrent
Paisa Vasool (2017) 720p UNCUT HDRip x264 [Dual Audio] [Hindi DD 2.0 - Telugu 2.0] Exclusive By -=!Dr.STAR!=- torrent

Social

Download Torrent "Ittefaq (2017) + Extras (1080p BluRay x265 HEVC 10bit AAC 5.1 Hindi Natty) ..."

IMDB Details
Description:

A detective seeks out the truth between two different stories of a crime scene.

Genre:

Mystery, Thriller

Download Torrent (Magnet)
Download Torrent (File)
Seeds: 29
Leechers: 11
Completed: 355 
Last Checked: 16-05-2018 09:32:18


Loading...
Details
Title:Ittefaq (2017) + Extras (1080p BluRay x265 HEVC 10bit AAC 5.1 Hindi Natty) ...
Description:


Note from Encoder:
Encoded by clearFoster



Encode Screenshots (Click for full quality)








Media Information
General
Format                                   : Matroska
Format version                           : Version 4 / Version 2
File size                                : 2.81 GiB
Duration                                 : 1 h 45 min
Overall bit rate                         : 3 813 kb/s
Encoded date                             : UTC 2018-04-06 12:48:17
Writing application                      : mkvmerge v20.0.0 ('I Am The Sun') 64-bit
Writing library                          : libebml v1.3.5 + libmatroska v1.4.8
Cover                                    : Yes
Attachments                              : cover.jpg
Writing frontend                         : Natty

Video
ID                                       : 1
Format                                   : HEVC
Format/Info                              : High Efficiency Video Coding
Format profile                           : Main [email protected]@High
Codec ID                                 : V_MPEGH/ISO/HEVC
Duration                                 : 1 h 45 min
Bit rate                                 : 3 306 kb/s
Width                                    : 1 920 pixels
Height                                   : 800 pixels
Display aspect ratio                     : 2.40:1
Frame rate mode                          : Constant
Frame rate                               : 24.000 FPS
Color space                              : YUV
Chroma subsampling                       : 4:2:0
Bit depth                                : 10 bits
Bits/(Pixel*Frame)                       : 0.090
Stream size                              : 2.44 GiB (87%)
Writing library                          : x265 2.7+1-2aa737a99f51:[Windows][MSVC 1900][64 bit] 10bit
Encoding settings                        : cpuid=1105919 / frame-threads=2 / numa-pools=6 / wpp / no-pmode / no-pme / no-psnr / no-ssim / log-level=2 / input-csp=1 / input-res=1920x800 / interlace=0 / total-frames=151960 / level-idc=41 / high-tier=1 / uhd-bd=0 / ref=5 / no-allow-non-conformance / no-repeat-headers / annexb / no-aud / no-hrd / info / hash=0 / no-temporal-layers / open-gop / min-keyint=24 / keyint=400 / gop-lookahead=0 / bframes=8 / b-adapt=2 / b-pyramid / bframe-bias=0 / rc-lookahead=100 / lookahead-slices=5 / scenecut=40 / radl=0 / no-intra-refresh / ctu=32 / min-cu-size=8 / no-rect / no-amp / max-tu-size=16 / tu-inter-depth=1 / tu-intra-depth=1 / limit-tu=0 / rdoq-level=0 / dynamic-rd=0.00 / no-ssim-rd / signhide / no-tskip / nr-intra=0 / nr-inter=0 / no-constrained-intra / no-strong-intra-smoothing / max-merge=2 / limit-refs=3 / limit-modes / me=3 / subme=5 / merange=57 / temporal-mvp / weightp / no-weightb / no-analyze-src-pics / deblock=-2:-2 / no-sao / no-sao-non-deblock / rd=4 / no-early-skip / rskip / no-fast-intra / no-tskip-fast / no-cu-lossless / no-b-intra / no-splitrd-skip / rdpenalty=0 / psy-rd=0.00 / psy-rdoq=0.00 / no-rd-refine / no-lossless / cbqpoffs=0 / crqpoffs=0 / rc=crf / crf=18.0 / qcomp=0.70 / qpstep=4 / stats-write=0 / stats-read=0 / vbv-maxrate=50000 / vbv-bufsize=50000 / vbv-init=0.9 / crf-max=0.0 / crf-min=0.0 / ipratio=1.40 / pbratio=1.30 / aq-mode=3 / aq-strength=0.90 / cutree / zone-count=0 / no-strict-cbr / qg-size=32 / no-rc-grain / qpmax=69 / qpmin=0 / no-const-vbv / sar=0 / overscan=0 / videoformat=5 / range=0 / colorprim=1 / transfer=1 / colormatrix=1 / chromaloc=0 / display-window=0 / max-cll=0,0 / min-luma=0 / max-luma=1023 / log2-max-poc-lsb=8 / vui-timing-info / vui-hrd-info / slices=1 / no-opt-qp-pps / no-opt-ref-list-length-pps / multi-pass-opt-rps / scenecut-bias=0.05 / no-opt-cu-delta-qp / aq-motion / no-hdr / no-hdr-opt / no-dhdr10-opt / analysis-reuse-level=10 / scale-factor=0 / refine-intra=0 / refine-inter=0 / refine-mv=0 / no-limit-sao / ctu-info=0 / no-lowpass-dct / refine-mv-type=0 / copy-pic=1
Default                                  : Yes
Forced                                   : No
Color range                              : Limited
Color primaries                          : BT.709
Transfer characteristics                 : BT.709
Matrix coefficients                      : BT.709

Audio
ID                                       : 2
Format                                   : AAC
Format/Info                              : Advanced Audio Codec
Format profile                           : LC
Codec ID                                 : A_AAC
Duration                                 : 1 h 45 min
Bit rate                                 : 484 kb/s
Channel(s)                               : 6 channels
Channel positions                        : Front: L C R, Side: L R, LFE
Sampling rate                            : 48.0 kHz
Frame rate                               : 46.875 FPS (1024 spf)
Compression mode                         : Lossy
Delay relative to video                  : 20 ms
Stream size                              : 366 MiB (13%)
Language                                 : Hindi
Default                                  : Yes
Forced                                   : No

Subtitle #1
ID                                       : 3
Format                                   : PGS
Muxing mode                              : zlib
Codec ID                                 : S_HDMV/PGS
Codec ID/Info                            : Picture based subtitle format used on BDs/HD-DVDs
Duration                                 : 1 h 39 min
Bit rate                                 : 32.5 kb/s
Count of elements                        : 2406
Stream size                              : 23.0 MiB (1%)
Language                                 : English
Default                                  : No
Forced                                   : No

Subtitle #2
ID                                       : 4
Format                                   : UTF-8
Codec ID                                 : S_TEXT/UTF8
Codec ID/Info                            : UTF-8 Plain Text
Duration                                 : 1 h 39 min
Bit rate                                 : 59 b/s
Count of elements                        : 1370
Stream size                              : 42.9 KiB (0%)
Language                                 : English
Default                                  : No
Forced                                   : No

Menu
00:00:00.000                             : en:00:00:00.000
00:01:06.625                             : en:00:01:06.625
00:08:28.750                             : en:00:08:28.750
00:15:33.500                             : en:00:15:33.500
00:28:50.000                             : en:00:28:50.000
00:36:17.208                             : en:00:36:17.208
00:49:29.833                             : en:00:49:29.833
00:54:23.500                             : en:00:54:23.500
01:03:09.000                             : en:01:03:09.000
01:08:05.917                             : en:01:08:05.917
01:21:33.000                             : en:01:21:33.000
01:29:51.833                             : en:01:29:51.833

Source Information
Release : Ittefaq.2017.Complete.Bluray.AVC.DTSHD-MA5.1-DTOne | 35.0 GiB | DesiTorrents



Note from QxR:
Whilst we are happy for our releases to be re-posted on a platform we aren't on, please do so in an 'as-is' format. We ask that you do not create a new torrent, include all descriptions you see above including the QxR logo, tags, notes and screenshots. If you'd like to become a permanent poster on a website we don't post to, feel free to get in contact with a QxR member.
Category:Movies > HEVC/x265
Lang:Hindi  Hindi
Total Size:3.10 GB
Info Hash:38fb31fc2fa7698590bb451a40e7890fbca232ed
Added By:QxR
Date Added:16-05-2018 09:32:13

  

Files

File List: 
 File Size
Extras/Abhay as Director.mkv33 MB
Extras/Action Teaser.mkv23 MB
Extras/Actors Camaraderie.mkv29 MB
Extras/Akshaye Khanna as Dev.mkv24 MB
Extras/Main Menu.mkv14 MB
Extras/Making of Song Ittefaq Se.mkv37 MB
Extras/Poster Shoot.mkv32 MB
Extras/Sid as Vikram.mkv27 MB
Extras/Sidharth Malhotra - 50 DAYS 50 SHOTS.mkv30 MB
Extras/Sidharth Malhotra Fun.mkv12 MB
Extras/Sonakshi as Maya.mkv20 MB
Extras/Sonakshi Sinha Fun.mkv11 MB
Ittefaq (2017) (1080p BluRay x265 Natty).mkv2.81 GB



Loading...
Comments

There are currently no comments. Be the first one to write something !

Disclaimer: None of the files shown here are actually hosted or transmitted by this server. The links are provided solely by this site's users. The site moderation is also a service provided by the site's users. The administrator of this site (ettv.tv) cannot be held responsible for what its users post, or any other actions of its users. You may not use this site to distribute or download any material when you do not have the legal rights to do so. It is your own responsibility to adhere to these terms.