avengers Yellowstone hindi arrow español suits deadpool ettv Elizabeth Bear LESBIAN ANAL SEX SLAVES shooter castle rock Killjoys S04E05 dragonheart curse S.W.A.T.2017.S01E01.HDTV.x264 KILLERS ettv IT.2017.720p.HC.HDRIP.x264.AC3 TiTAN fgt Jurassic world the 100 mountain men The Walking Dead Live pd dtone AMMORE E MALAVITA ethd Gotham wynonna earp evo Condor real time survivor bill maher the meg etmovies ETRG avengers infinity war Arrow.S06E02.HDTV.x264 LOL ettv ddr etrg big bang theory español upgrade 2018 star trek discovery español judge judy S22 Queen of The South elementary disenchantment preacher 720p BRRip x264 EVO deadpool 2 better call saul Survivor South Africa Killjoys 
Warning! Use a VPN When Downloading Torrents!
Your IP Address is 54.196.98.96. Location is United States
Your Internet Provider is tracking your torrent activity! Hide your IP ADDRESS with a VPN!
We strongly recommend using ExpressVPN to anonymize your torrenting. 30 Day Money Back Guarantee!
Try it Now!
ETTV Recommended TV Shows
Shooter.S03E09.WEB.x264-STRiFE[ettv] torrent
Wynonna.Earp.S03E05.HDTV.x264-KILLERS[ettv] torrent
Killjoys.S04E05.WEBRip.x264-PBS[ettv] torrent
Stan.Lees.Lucky.Man.S03E05.HDTV.x264-MTB[ettv] torrent

ETTV Recommended Xvid
Down.a.Dark.Hall.2018.HDRip.XViD-ETRG torrent
To.All.the.Boys.Ive.Loved.Before.2018.HDRip.XViD-ETRG torrent
Puppet.Master.The.Littlest.Reich.2018.HDRip.XViD-ETRG torrent
Riot.2018.HDRip.XviD.AC3-EVO[EtMovies] torrent

ETTV Recommended HD
Upgrade.2018.1080p.BluRay.x264-DRONES[EtHD] torrent
American.Animals.2018.1080p.BluRay.x264-DRONES[EtHD] torrent
Woman.Walks.Ahead.2017.1080p.BluRay.x264-ROVERS[EtHD] torrent
Furlough 2018 BluRay 1080p DTS-HD MA5.1 x264-MTeam[EtHD] torrent

ETTV Recommended Cam
The Meg 2018 720p TS-1XBET torrent
Mile.22.2018.HDCAM.XViD.AC3-ETRG torrent
A.X.L 2018 720p HDCAM HC ENG SUB-1XBET torrent
Alpha 2018 CAM-1XBET torrent

ETTV Recommended Foreign
Satyameva.Jayate.(2018).1-3.V2.Desi.Pre.Rip.x264.AC3-DTOne.10th.Anniversary torrent
Rolling.to.You.2018.720p.BluRay.DTS.x264-HDH[EtHD] torrent
Thamizh Padam 2 (2018) [TAMIL - 720p - WEB HDRip - x264 - DD 5.1 - ESub - 2GB] - MAZE torrent
Avengers.Infinity.War.(2018).1080p.[Dual.Audio].[Org.BD].{Hindi+Eng.6Ch}.-~{DOOMSDAY}~-. torrent

Social

Download Torrent "Parched (2015) (1080p BluRay x265 HEVC 10bit AAC 5.1 Hindi Natty) [QxR]"

IMDB Details
Description:

In the arid landscape of Rajashthan, four women navigate their way through personal and cultural difficulties.

Genre:

Drama

Download Torrent (Magnet)
Download Torrent (File)
Seeds: 31
Leechers: 5
Completed: 318 
Last Checked: 16-05-2018 10:23:21


Loading...
Details
Title:Parched (2015) (1080p BluRay x265 HEVC 10bit AAC 5.1 Hindi Natty) [QxR]
Description:


Encode Screenshots (Click for full quality)







Media Information
General
Format                                   : Matroska
Format version                           : Version 4 / Version 2
File size                                : 3.06 GiB
Duration                                 : 1 h 56 min
Overall bit rate                         : 3 744 kb/s
Movie name                               : Parched 2015 BD50
Encoded date                             : UTC 2018-05-14 18:10:01
Writing application                      : mkvmerge v23.0.0 ('The Bride Said No') 64-bit
Writing library                          : libebml v1.3.6 + libmatroska v1.4.9
Writing frontend                         : Natty

Video
ID                                       : 1
Format                                   : HEVC
Format/Info                              : High Efficiency Video Coding
Format profile                           : Main [email protected]@Main
Codec ID                                 : V_MPEGH/ISO/HEVC
Duration                                 : 1 h 56 min
Bit rate                                 : 3 526 kb/s
Width                                    : 1 920 pixels
Height                                   : 806 pixels
Display aspect ratio                     : 2.40:1
Frame rate mode                          : Constant
Frame rate                               : 24.000 FPS
Color space                              : YUV
Chroma subsampling                       : 4:2:0
Bit depth                                : 10 bits
Bits/(Pixel*Frame)                       : 0.095
Stream size                              : 2.88 GiB (94%)
Writing library                          : x265 2.7+348-0968a46d6ba4:[Windows][MSVC 1900][64 bit] 10bit
Encoding settings                        : cpuid=1111039 / frame-threads=2 / numa-pools=4 / wpp / no-pmode / no-pme / no-psnr / no-ssim / log-level=2 / input-csp=1 / input-res=1920x806 / interlace=0 / total-frames=168354 / level-idc=0 / high-tier=1 / uhd-bd=0 / ref=4 / no-allow-non-conformance / no-repeat-headers / annexb / no-aud / no-hrd / info / hash=0 / no-temporal-layers / open-gop / min-keyint=24 / keyint=400 / gop-lookahead=0 / bframes=8 / b-adapt=2 / b-pyramid / bframe-bias=0 / rc-lookahead=100 / lookahead-slices=4 / scenecut=40 / radl=0 / no-intra-refresh / ctu=32 / min-cu-size=8 / no-rect / no-amp / max-tu-size=16 / tu-inter-depth=1 / tu-intra-depth=1 / limit-tu=0 / rdoq-level=2 / dynamic-rd=0.00 / no-ssim-rd / signhide / no-tskip / nr-intra=0 / nr-inter=0 / no-constrained-intra / no-strong-intra-smoothing / max-merge=2 / limit-refs=3 / limit-modes / me=3 / subme=5 / merange=57 / temporal-mvp / weightp / weightb / no-analyze-src-pics / deblock=-2:0 / no-sao / no-sao-non-deblock / rd=4 / no-early-skip / rskip / no-fast-intra / no-tskip-fast / no-cu-lossless / no-b-intra / no-splitrd-skip / rdpenalty=0 / psy-rd=2.00 / psy-rdoq=1.00 / no-rd-refine / no-lossless / cbqpoffs=0 / crqpoffs=0 / rc=crf / crf=22.0 / qcomp=0.80 / qpstep=4 / stats-write=0 / stats-read=0 / ipratio=1.40 / pbratio=1.30 / aq-mode=3 / aq-strength=0.90 / cutree / zone-count=0 / no-strict-cbr / qg-size=32 / no-rc-grain / qpmax=69 / qpmin=0 / no-const-vbv / sar=0 / overscan=0 / videoformat=5 / range=0 / colorprim=1 / transfer=1 / colormatrix=1 / chromaloc=0 / display-window=0 / max-cll=0,0 / min-luma=0 / max-luma=1023 / log2-max-poc-lsb=8 / vui-timing-info / vui-hrd-info / slices=1 / no-opt-qp-pps / no-opt-ref-list-length-pps / multi-pass-opt-rps / scenecut-bias=0.05 / no-opt-cu-delta-qp / aq-motion / no-hdr / no-hdr-opt / no-dhdr10-opt / no-idr-recovery-sei / analysis-reuse-level=8 / scale-factor=0 / refine-intra=0 / refine-inter=0 / refine-mv=0 / no-limit-sao / ctu-info=0 / no-lowpass-dct / refine-mv-type=0 / copy-pic=1 / max-ausize-factor=1.0 / no-dynamic-refine / no-single-sei
Default                                  : Yes
Forced                                   : No
Color range                              : Limited
Color primaries                          : BT.709
Transfer characteristics                 : BT.709
Matrix coefficients                      : BT.709

Audio
ID                                       : 2
Format                                   : AAC
Format/Info                              : Advanced Audio Codec
Format profile                           : HE-AAC / LC
Codec ID                                 : A_AAC
Duration                                 : 1 h 56 min
Bit rate                                 : 204 kb/s
Channel(s)                               : 6 channels
Channel positions                        : Front: L C R, Side: L R, LFE
Sampling rate                            : 48.0 kHz / 24.0 kHz
Frame rate                               : 23.438 FPS (1024 spf)
Compression mode                         : Lossy
Delay relative to video                  : 40 ms
Stream size                              : 171 MiB (5%)
Language                                 : Hindi
Default                                  : No
Forced                                   : No

Subtitle
ID                                       : 3
Format                                   : PGS
Muxing mode                              : zlib
Codec ID                                 : S_HDMV/PGS
Codec ID/Info                            : Picture based subtitle format used on BDs/HD-DVDs
Duration                                 : 1 h 51 min
Bit rate                                 : 26.6 kb/s
Count of elements                        : 2870
Stream size                              : 21.2 MiB (1%)
Language                                 : English
Default                                  : No
Forced                                   : No

Menu
00:00:00.000                             : en:1. Marriage Proposal
00:09:49.333                             : en:2. Paternalistic Panchayat
00:17:54.792                             : en:3. Bhookamp
00:20:50.625                             : en:4. Raw Deal in Life
00:30:52.417                             : en:5. Baisaa
00:33:07.833                             : en:6. Double Standard Society
00:43:21.625                             : en:7. Authentic Bond and Love
00:56:24.583                             : en:8. A Misogynist Mindset
01:08:16.458                             : en:9. Decision for Better Life
01:12:41.333                             : en:10. Mai Ri Mai
01:16:14.792                             : en:11. Kachhuva
01:19:05.625                             : en:12. Social Apathy
01:29:04.625                             : en:13. Embezzlement
01:41:18.125                             : en:14. Breaking Shackles
01:53:58.417                             : en:15. Hichki

Source Information
Release : Parched.(2016).Untouched.-.BD50.-.AVC.-.TrueHD.5.1.-.ESuBS.-.Hon3yHD.[Exclusive] | 33 GiB | Hon3yHD



Note from QxR:
Whilst we are happy for our releases to be re-posted on a platform we aren't on, please do so in an 'as-is' format. We ask that you do not create a new torrent, include all descriptions you see above including the QxR logo, tags, notes and screenshots. If you'd like to become a permanent poster on a website we don't post to, feel free to get in contact with a QxR member.
Category:Movies > HEVC/x265
Lang:Hindi  Hindi
Total Size:3.06 GB
Info Hash:abcfaede17df2a2b852b2e39eb08527acbe25433
Added By:QxR
Date Added:16-05-2018 10:23:18

Files

File List: 
 File Size
Parched (2015) (1080p BluRay x265 Natty).mkv3.06 GB



Loading...
Comments

There are currently no comments. Be the first one to write something !

Disclaimer: None of the files shown here are actually hosted or transmitted by this server. The links are provided solely by this site's users. The site moderation is also a service provided by the site's users. The administrator of this site (ettv.tv) cannot be held responsible for what its users post, or any other actions of its users. You may not use this site to distribute or download any material when you do not have the legal rights to do so. It is your own responsibility to adhere to these terms.