ettv gotham Condor colony S03E12 infinity war deadpool 2 quantico Vikings ready player one chris cornel westworld big bang theory español hindi star trek discovery español ethd Preacher code black arrow español etrg etmovies who is america animal kingdom judge judy S22 evo originals into the badlands fgt LESBIAN ANAL SEX SLAVES Condor S01E06 wentworth The Originals S05E11 ddr Colony more s12e13 avengers elementary masterchef Angela White HDChina Suits one who flew over the cuckoos nest brooke wylde The 100 wentworth s06e05 avengers infinity war six Salvation Cloak and dagger dtone jurassic world hugo ita Condor 1080p The Originals wwe masterchef australia avengers infinity war 2018 
Warning! Use a VPN When Downloading Torrents!
Your IP Address is 54.224.2.123. Location is United States
Your Internet Provider is tracking your torrent activity! Hide your IP ADDRESS with a VPN!
We strongly recommend using ExpressVPN to anonymize your torrenting. 30 Day Money Back Guarantee!
Try it Now!
ETTV Recommended TV Shows
Marvels.Cloak.and.Dagger.S01E08.WEB.x264-TBS[ettv] torrent
Condor.S01E06.WEBRip.x264-PBS[ettv] torrent
Shooter.S03E05.HDTV.x264-SVA[ettv] torrent
Snowfall.S02E01.HDTV.x264-SVA[ettv] torrent

ETTV Recommended Xvid
Godzilla.City.on.the.Edge.of.Battle.2018.HDRip.XviD.AC3-EVO[EtMovies] torrent
China Salesman 2018.BRRip.XviD.AC3-EVO[EtMovies] torrent
Broken Star 2018.HDRip.XViD-ETRG torrent
Father.of.the.Year.2018.HDRip.XViD-ETRG torrent

ETTV Recommended HD
Mission.Impossible.Pentalogy1996-2015.Multi.2160p.UHD.BluRay.x265.HDR-DTOne torrent
Occupation.2018.1080p.WEB-DL.H264.AC3-EVO[EtHD] torrent
Father.of.the.Year.2018.1080p.WEB.x264-STRiFE[EtHD] torrent
Duck.Duck.Goose.2018.1080p.NF.WEB-DL.DDP5.1.x264-NTG[EtHD] torrent

ETTV Recommended Cam
Superfly 2018 NEW HDCAM X264-24HD torrent
Skyscraper 2018.NEW.HDCAM.XViD.AC3-ETRG torrent
Jurassic World Fallen Kingdom 2018 NEW HD-TS.XViD.AC3 ETRG torrent
Hereditary 2018 NEW HDCAM.XViD.AC3-ETRG torrent

ETTV Recommended Foreign
Mean Streets 1973 Multi 1080p Blu-ray x265 DTS-HDMA 1.0-DTOne torrent
God.of.War.2017.Multi.1080p.Bluray.x264.DTS-HDMA.5.1 [CHN+GER]-DTOne torrent
Operation.Red.Sea.2018.Blu-ray.1080P.x264.DTS-HD.MA7.1-DTOne torrent
Qosty.Byogaani.2018.HD720p.قسطي.بيوجعني[ETArabia] torrent

Social

Download Torrent "Barry S01E08 (1080p AMZN WEB-DL x265 HEVC 10bit AC3 5.1 Qman) [UTR]"

IMDB Details
Description:

N/A

Genre:

N/A

Download Torrent (Magnet)
Download Torrent (File)
Seeds: 20
Leechers: 5
Completed: 789 
Last Checked: 16-05-2018 17:20:50


Loading...
Details
Title:Barry S01E08 (1080p AMZN WEB-DL x265 HEVC 10bit AC3 5.1 Qman) [UTR]
Description:





Media Information
General
Format                                   : Matroska
Format version                           : Version 4 / Version 2
File size                                : 584 MiB
Duration                                 : 33 min 27 s
Overall bit rate                         : 2 439 kb/s
Encoded date                             : UTC 2018-05-15 13:48:14
Writing application                      : mkvmerge v23.0.0 ('The Bride Said No') 64-bit
Writing library                          : libebml v1.3.6 + libmatroska v1.4.9

Video
ID                                       : 1
Format                                   : HEVC
Format/Info                              : High Efficiency Video Coding
Format profile                           : Main [email protected]@Main
Codec ID                                 : V_MPEGH/ISO/HEVC
Duration                                 : 33 min 27 s
Bit rate                                 : 1 797 kb/s
Width                                    : 1 920 pixels
Height                                   : 1 080 pixels
Display aspect ratio                     : 16:9
Frame rate mode                          : Constant
Frame rate                               : 23.976 (24000/1001) FPS
Color space                              : YUV
Chroma subsampling                       : 4:2:0
Bit depth                                : 10 bits
Bits/(Pixel*Frame)                       : 0.036
Stream size                              : 430 MiB (74%)
Writing library                          : x265 2.7+344-091f07265371:[Windows][MSVC 1914][64 bit] 10bit
Encoding settings                        : cpuid=1111039 / frame-threads=4 / numa-pools=16 / wpp / no-pmode / no-pme / no-psnr / no-ssim / log-level=2 / input-csp=1 / input-res=1920x1080 / interlace=0 / total-frames=48137 / level-idc=0 / high-tier=1 / uhd-bd=0 / ref=4 / no-allow-non-conformance / no-repeat-headers / annexb / no-aud / no-hrd / info / hash=0 / no-temporal-layers / open-gop / min-keyint=23 / keyint=250 / gop-lookahead=0 / bframes=8 / b-adapt=2 / b-pyramid / bframe-bias=0 / rc-lookahead=25 / lookahead-slices=4 / scenecut=40 / radl=0 / no-intra-refresh / ctu=64 / min-cu-size=8 / rect / no-amp / max-tu-size=32 / tu-inter-depth=1 / tu-intra-depth=1 / limit-tu=0 / rdoq-level=2 / dynamic-rd=0.00 / no-ssim-rd / signhide / no-tskip / nr-intra=0 / nr-inter=0 / no-constrained-intra / strong-intra-smoothing / max-merge=3 / limit-refs=3 / limit-modes / me=3 / subme=3 / merange=57 / temporal-mvp / weightp / no-weightb / no-analyze-src-pics / deblock=0:0 / sao / no-sao-non-deblock / rd=4 / no-early-skip / rskip / no-fast-intra / no-tskip-fast / no-cu-lossless / no-b-intra / no-splitrd-skip / rdpenalty=0 / psy-rd=2.00 / psy-rdoq=2.00 / no-rd-refine / no-lossless / cbqpoffs=0 / crqpoffs=0 / rc=crf / crf=21.5 / qcomp=0.60 / qpstep=4 / stats-write=0 / stats-read=0 / ipratio=1.40 / pbratio=1.30 / aq-mode=2 / aq-strength=1.00 / cutree / zone-count=0 / no-strict-cbr / qg-size=32 / no-rc-grain / qpmax=69 / qpmin=0 / no-const-vbv / sar=0 / overscan=0 / videoformat=5 / range=0 / colorprim=2 / transfer=2 / colormatrix=2 / chromaloc=0 / display-window=0 / max-cll=0,0 / min-luma=0 / max-luma=1023 / log2-max-poc-lsb=8 / vui-timing-info / vui-hrd-info / slices=1 / no-opt-qp-pps / no-opt-ref-list-length-pps / no-multi-pass-opt-rps / scenecut-bias=0.05 / no-opt-cu-delta-qp / no-aq-motion / no-hdr / no-hdr-opt / no-dhdr10-opt / no-idr-recovery-sei / analysis-reuse-level=5 / scale-factor=0 / refine-intra=0 / refine-inter=0 / refine-mv=0 / no-limit-sao / ctu-info=0 / no-lowpass-dct / refine-mv-type=0 / copy-pic=1 / max-ausize-factor=1.0 / no-dynamic-refine / no-single-sei
Language                                 : English
Default                                  : Yes
Forced                                   : No

Audio
ID                                       : 2
Format                                   : E-AC-3
Format/Info                              : Enhanced Audio Coding 3
Format settings, Endianness              : Big
Codec ID                                 : A_EAC3
Duration                                 : 33 min 27 s
Bit rate mode                            : Constant
Bit rate                                 : 640 kb/s
Channel(s)                               : 6 channels
Channel positions                        : Front: L C R, Side: L R, LFE
Sampling rate                            : 48.0 kHz
Frame rate                               : 187.500 FPS (256 spf)
Compression mode                         : Lossy
Delay relative to video                  : 17 ms
Stream size                              : 153 MiB (26%)
Language                                 : English
Default                                  : Yes
Forced                                   : No

Subtitle
ID                                       : 3
Format                                   : UTF-8
Codec ID                                 : S_TEXT/UTF8
Codec ID/Info                            : UTF-8 Plain Text
Duration                                 : 32 min 6 s
Bit rate                                 : 70 b/s
Count of elements                        : 536
Stream size                              : 16.6 KiB (0%)
Language                                 : English
Default                                  : Yes
Forced                                   : No

Source Information
Release: Unknown Source/NO-GROUP


UTR wrote:

Note From UTR
We have no issue with individuals posting or re-uploading our torrents on a platform we aren't on. However, if this is something you'd like to do, please do so in a 'as-is' format. We ask that you do not create a new torrent, include all descriptions you see above including the UTR logo, tags, notes and screenshots. If you'd like to become a permanent poster on a website we don't post to, feel free to get in contact with a UniTeam member.

If possible please donate: BTC 1QA5fum5AyXvWzdVCkQzUNvw3Ef15fHRaR



Category:TV > HEVC/x265
Lang:English  English
Total Size:584 MB
Info Hash:9cc8cb03c6c8e0635812281a50f1a09fc8e2ee4d
Added By:UTR
Date Added:16-05-2018 17:20:42

Files

File List: 
 File Size
Barry.S01E08.1080p.AMZN.WEB-DL.x265.10bit.EAC3.6.0-Qman[UTR].mkv584 MB



Loading...
Comments

There are currently no comments. Be the first one to write something !

Disclaimer: None of the files shown here are actually hosted or transmitted by this server. The links are provided solely by this site's users. The site moderation is also a service provided by the site's users. The administrator of this site (ettv.tv) cannot be held responsible for what its users post, or any other actions of its users. You may not use this site to distribute or download any material when you do not have the legal rights to do so. It is your own responsibility to adhere to these terms.