kgf sarkar Manikarnika star trek discovery thakrey Xxx kedarnath thackeray malayalam the accidental prime minister supernatural evo aquaman telugu odiyan the flash why cheat india great british bake off s09e10 vikings tushy 18.12 1080p.mp4-ktr charlie chaplin 2 1080P Hindi mirzapur ettv mr majnu the grand tour 2018 ita Adanga Maru Tin Star etmovies dtone uri EVO malayalam 2018 movies AQUAMAN ita Bumblebee ethd ITA zero etrg venom f2 1080p 2018 maari 2 Game Of Thrones viswasam TamilRockers Kannada simmba Kannada ddr simbha tushyraw 1080p.mp4-ktr mortal engines simba petta DTOne uri the surgical strike kung fu the legend Young justice tamil robot 2.0 it brazzers it 2017 2.0 thakre Njan Prakashan glass fgt bohemian rhapsody Star Trek Discovery S02E02 
Warning! Use a VPN When Downloading Torrents!
Your IP Address is 34.228.115.216. Location is United States
Your Internet Provider is tracking your torrent activity! Hide your IP ADDRESS with a VPN!
We strongly recommend using ExpressVPN to anonymize your torrenting. 30 Day Money Back Guarantee!
Try it Now!
ETTV Recommended TV Shows
Doom.Patrol.S01E02.WEBRip.x264-PBS[ettv] torrent
Strike.Back.S07E05.WEBRip.x264-PBS[ettv] torrent
Proven.Innocent.S01E02.WEB.x264-TBS[ettv] torrent
MacGyver.2016.S03E16.WEB.x264-TBS[ettv] torrent
Hawaii.Five-0.2010.S09E16.WEB.x264-TBS[ettv] torrent
The.Blacklist.S06E08.WEB.x264-TBS[ettv] torrent

ETTV Recommended SD
Dirty.Dealing.2019.HDRip.XviD.AC3-EVO torrent
Trading.Paint.2019.HDRip.XViD-ETRG torrent
Vox.Lux.2018.BRRip.XViD-ETRG torrent
Paddleton.2019.WEBRip.XviD-DiNGO[EtMovies] torrent

ETTV Recommended HD
Instant.Family.2018.1080p.BluRay.x264-SPARKS[EtHD] torrent
Iceman The Time Traveller 2018.Multi.1080p.Blu-ray.HEVC.DTS-HDMA.5.1-DTOne torrent
Serenity.2019.1080p.BluRay.HEVC.DTS-HD.MA.5.1-DTOne torrent
The Possession of Hannah Grace 2018 Multi.BluRay 1080p HEVC DTS-HD MA5.1-DTOne torrent

ETTV Recommended UHD
Ralph.Breaks.the.Internet.2018.UHD.2160p.BluRay.x265.HDR.Atmos.7.1-DTOne torrent
Mary.Queen.of.Scots.2018.MULTi.UHD.BluRay.2160p.x265.HDR.Atmos.7.1-DTOne torrent
The.Little.Mermaid.1989.UHD.BluRay.2160p.x265.HDR.Atmos.7.1-DTOne torrent
Fantastic.Beasts.The.Crimes.Of.Grindelwald.2018.MULTI.2160p.HDR.UHDRip.DD.5.1-DTOne torrent

ETTV Recommended Cam
What Men Want 2019 HDCAM x264 AC3 MP4KiNG torrent
The.Prodigy.2019..HDCAM.XViD.AC3-ETRG torrent
Run the Race 2019 720p HDCAM-1XBET torrent
Alita Battle Angel 2019 HDTC x264 AC3-ETRG torrent

ETTV Recommended Foreign
Monstrum 2018 BluRay 1080p TrueHD 5.1 x264-MTeam[EtHD] torrent
Total.Dhamaal.(2019).Untouch.Pre.DVD-DTOne torrent
Yamakasi (2001) x264 720p UNCUT WEB-DL Eng Subs {Dual Audio} [Hindi ORG DD 2.0 + French 2.0] Exclusive By DREDD torrent
Petta (2019) WebDL AVC AAC 2.0 - DTOne torrent


Download Torrent "12 monkeys 1995 1080p BluRay BDrip x265 AAC5.1 D0ct0rLew[UTR-HD]"

IMDB Details
Description:

N/A

Genre:

N/A

Download Torrent (Magnet)
Download Torrent (File)
Seeds: 188
Leechers: 138
Completed: 782 
Last Checked: 25-07-2018 01:05:02


Details
Title:12 monkeys 1995 1080p BluRay BDrip x265 AAC5.1 D0ct0rLew[UTR-HD]
Description:



Screenshots
Source



Encode




The genesis of 12 Monkeys came from executive producer Robert Kosberg, who had been a fan of the French short film La Jetée (1962).
Kosberg persuaded the film's director, Chris Marker, to let him pitch the project to Universal Pictures, seeing it as a perfect basis for a full-length science fiction film. 


So you might want to check it out. You can download that here https://www.ettv.tv/torrent/225902/-la-jetee-1962-bluray-bdrip-1080p-x265-aac1-0-d0ct0rlew-utr-hd


Media Information

Unique ID                                : 208663772285507413290584659239894762271 (0x9CFB2E44ABEF806DA78988F20EFBC31F)
Complete name                            : 12 monkeys 1995 1080p BluRay BDrip x265 AAC5.1 D0ct0rLew[UTR-HD].mkv
Format                                   : Matroska
Format version                           : Version 4 / Version 2
File size                                : 11.9 GiB
Duration                                 : 2 h 9 min
Overall bit rate                         : 13.1 Mb/s
Encoded date                             : UTC 2018-07-24 18:52:17
Writing application                      : mkvmerge v17.0.0 ('Be Ur Friend') 64-bit
Writing library                          : libebml v1.3.5 + libmatroska v1.4.8

Video
ID                                       : 1
Format                                   : HEVC
Format/Info                              : High Efficiency Video Coding
Format profile                           : Main [email protected]@Main
Codec ID                                 : V_MPEGH/ISO/HEVC
Duration                                 : 2 h 9 min
Bit rate                                 : 11.7 Mb/s
Width                                    : 1 920 pixels
Height                                   : 1 080 pixels
Display aspect ratio                     : 16:9
Frame rate mode                          : Constant
Frame rate                               : 23.976 (24000/1001) FPS
Color space                              : YUV
Chroma subsampling                       : 4:2:0
Bit depth                                : 10 bits
Bits/(Pixel*Frame)                       : 0.236
Stream size                              : 10.6 GiB (89%)
Writing library                          : x265 2.7+348-0968a46d6ba4:[Windows][MSVC 1914][64 bit] 10bit
Encoding settings                        : cpuid=1049583 / frame-threads=3 / numa-pools=8 / wpp / no-pmode / no-pme / no-psnr / no-ssim / log-level=2 / input-csp=1 / input-res=1920x1080 / interlace=0 / total-frames=186408 / level-idc=0 / high-tier=1 / uhd-bd=0 / ref=5 / no-allow-non-conformance / no-repeat-headers / annexb / no-aud / no-hrd / info / hash=0 / no-temporal-layers / open-gop / min-keyint=23 / keyint=250 / gop-lookahead=0 / bframes=8 / b-adapt=2 / b-pyramid / bframe-bias=0 / rc-lookahead=90 / lookahead-slices=0 / scenecut=40 / radl=0 / no-intra-refresh / ctu=64 / min-cu-size=8 / rect / amp / max-tu-size=32 / tu-inter-depth=3 / tu-intra-depth=3 / limit-tu=4 / rdoq-level=2 / dynamic-rd=0.00 / no-ssim-rd / signhide / no-tskip / nr-intra=0 / nr-inter=0 / no-constrained-intra / no-strong-intra-smoothing / max-merge=4 / limit-refs=1 / limit-modes / me=3 / subme=4 / merange=92 / temporal-mvp / weightp / weightb / no-analyze-src-pics / deblock=-1:-1 / sao / no-sao-non-deblock / rd=6 / no-early-skip / rskip / no-fast-intra / no-tskip-fast / no-cu-lossless / b-intra / no-splitrd-skip / rdpenalty=0 / psy-rd=1.10 / psy-rdoq=1.00 / no-rd-refine / no-lossless / cbqpoffs=0 / crqpoffs=0 / rc=crf / crf=18.6 / qcomp=0.60 / qpstep=4 / stats-write=0 / stats-read=0 / ipratio=1.40 / pbratio=1.30 / aq-mode=3 / aq-strength=1.20 / cutree / zone-count=0 / no-strict-cbr / qg-size=32 / no-rc-grain / qpmax=69 / qpmin=0 / no-const-vbv / sar=0 / overscan=0 / videoformat=5 / range=0 / colorprim=2 / transfer=2 / colormatrix=2 / chromaloc=0 / display-window=0 / max-cll=0,0 / min-luma=0 / max-luma=1023 / log2-max-poc-lsb=8 / vui-timing-info / vui-hrd-info / slices=1 / no-opt-qp-pps / no-opt-ref-list-length-pps / no-multi-pass-opt-rps / scenecut-bias=0.05 / no-opt-cu-delta-qp / no-aq-motion / no-hdr / no-hdr-opt / no-dhdr10-opt / no-idr-recovery-sei / analysis-reuse-level=5 / scale-factor=0 / refine-intra=0 / refine-inter=0 / refine-mv=0 / no-limit-sao / ctu-info=0 / no-lowpass-dct / refine-mv-type=0 / copy-pic=1 / max-ausize-factor=1.0 / no-dynamic-refine / no-single-sei
Default                                  : Yes
Forced                                   : No

Audio #1
ID                                       : 2
Format                                   : AAC
Format/Info                              : Advanced Audio Codec
Format profile                           : LC
Codec ID                                 : A_AAC-2
Duration                                 : 2 h 9 min
Bit rate                                 : 576 kb/s
Channel(s)                               : 6 channels
Channel positions                        : Front: L C R, Side: L R, LFE
Sampling rate                            : 48.0 kHz
Frame rate                               : 46.875 FPS (1024 SPF)
Compression mode                         : Lossy
Delay relative to video                  : 9 ms
Stream size                              : 534 MiB (4%)
Language                                 : English
Default                                  : Yes
Forced                                   : No

Audio #2
ID                                       : 5
Format                                   : AAC
Format/Info                              : Advanced Audio Codec
Format profile                           : LC
Codec ID                                 : A_AAC-2
Duration                                 : 2 h 9 min
Bit rate                                 : 384 kb/s
Channel(s)                               : 6 channels
Channel positions                        : Front: L C R, Side: L R, LFE
Sampling rate                            : 48.0 kHz
Frame rate                               : 46.875 FPS (1024 SPF)
Compression mode                         : Lossy
Delay relative to video                  : 9 ms
Stream size                              : 356 MiB (3%)
Language                                 : Russian
Default                                  : No
Forced                                   : No

Audio #3
ID                                       : 6
Format                                   : AAC
Format/Info                              : Advanced Audio Codec
Format profile                           : LC
Codec ID                                 : A_AAC-2
Duration                                 : 2 h 9 min
Bit rate                                 : 384 kb/s
Channel(s)                               : 6 channels
Channel positions                        : Front: L C R, Side: L R, LFE
Sampling rate                            : 48.0 kHz
Frame rate                               : 46.875 FPS (1024 SPF)
Compression mode                         : Lossy
Delay relative to video                  : 9 ms
Stream size                              : 356 MiB (3%)
Language                                 : Ukrainian
Default                                  : No
Forced                                   : No

Audio #4
ID                                       : 7
Format                                   : AAC
Format/Info                              : Advanced Audio Codec
Format profile                           : HE-AAC / LC
Format settings                          : NBC
Codec ID                                 : A_AAC-5
Duration                                 : 2 h 9 min
Bit rate                                 : 64.0 kb/s
Channel(s)                               : 2 channels
Channel positions                        : Front: L R
Sampling rate                            : 48.0 kHz / 24.0 kHz
Frame rate                               : 23.438 FPS (1024 SPF)
Compression mode                         : Lossy
Stream size                              : 59.3 MiB (0%)
Title                                    : Commentary
Language                                 : English
Default                                  : No
Forced                                   : No

Text #1
ID                                       : 3
Format                                   : UTF-8
Codec ID                                 : S_TEXT/UTF8
Codec ID/Info                            : UTF-8 Plain Text
Duration                                 : 2 h 6 min
Bit rate                                 : 77 b/s
Count of elements                        : 1955
Stream size                              : 71.5 KiB (0%)
Language                                 : English
Default                                  : Yes
Forced                                   : No

Text #2
ID                                       : 4
Format                                   : VobSub
Muxing mode                              : zlib
Codec ID                                 : S_VOBSUB
Codec ID/Info                            : Picture based subtitle format used on DVDs
Duration                                 : 2 h 7 min
Bit rate                                 : 3 442 b/s
Count of elements                        : 1700
Stream size                              : 3.13 MiB (0%)
Language                                 : Russian
Default                                  : No
Forced                                   : No

Menu
00:00:00.000                             : en:Chapter 01
00:08:34.889                             : en:Chapter 02
00:10:58.366                             : en:Chapter 03
00:16:39.331                             : en:Chapter 04
00:21:29.871                             : en:Chapter 05
00:25:23.563                             : en:Chapter 06
00:29:27.265                             : en:Chapter 07
00:32:45.964                             : en:Chapter 08
00:36:30.229                             : en:Chapter 09
00:37:55.773                             : en:Chapter 10
00:40:00.398                             : en:Chapter 11
00:42:05.856                             : en:Chapter 12
00:44:45.140                             : en:Chapter 13
00:47:46.405                             : en:Chapter 14
00:53:47.849                             : en:Chapter 15
00:57:13.471                             : en:Chapter 16
00:58:50.151                             : en:Chapter 17
01:01:20.385                             : en:Chapter 18
01:03:24.217                             : en:Chapter 19
01:06:32.989                             : en:Chapter 20
01:10:06.493                             : en:Chapter 21
01:15:50.629                             : en:Chapter 22
01:18:27.994                             : en:Chapter 23
01:21:05.026                             : en:Chapter 24
01:23:42.851                             : en:Chapter 25
01:25:13.942                             : en:Chapter 26
01:26:36.983                             : en:Chapter 27
01:29:04.464                             : en:Chapter 28
01:31:33.696                             : en:Chapter 29
01:32:39.262                             : en:Chapter 30
01:35:04.573                             : en:Chapter 31
01:39:24.500                             : en:Chapter 32
01:41:40.511                             : en:Chapter 33
01:44:33.392                             : en:Chapter 34
01:46:33.678                             : en:Chapter 35
01:49:20.428                             : en:Chapter 36
01:50:57.859                             : en:Chapter 37
01:52:48.762                             : en:Chapter 38
01:54:31.364                             : en:Chapter 39
01:56:33.361                             : en:Chapter 40
01:59:06.722                             : en:Chapter 41
02:01:21.190                             : en:Chapter 42
02:04:13.237                             : en:Chapter 43
02:05:32.608                             : en:Chapter 44

Source Media Information

ID                                       : 1 (0x1)
Complete name                            : 12_MONKEYS_1995_BDREMUX_1080p_HDCLUB\BDMV\STREAM\00000.m2ts
Format                                   : BDAV
Format/Info                              : Blu-ray Video
File size                                : 49.0 GiB
Duration                                 : 2 h 9 min
Overall bit rate mode                    : Variable
Overall bit rate                         : 54.1 Mb/s
Maximum Overall bit rate                 : 35.5 Mb/s

Video
ID                                       : 4113 (0x1011)
Menu ID                                  : 1 (0x1)
Format                                   : VC-1
Format profile                           : [email protected]
Codec ID                                 : 234
Duration                                 : 2 h 9 min
Width                                    : 1 920 pixels
Height                                   : 1 080 pixels
Display aspect ratio                     : 16:9
Frame rate                               : 23.976 (24000/1001) FPS
Color space                              : YUV
Chroma subsampling                       : 4:2:0
Bit depth                                : 8 bits
Scan type                                : Progressive
Compression mode                         : Lossy

Audio #1
ID                                       : 4352 (0x1100)
Menu ID                                  : 1 (0x1)
Format                                   : AC-3
Format/Info                              : Audio Coding 3
Codec ID                                 : 129
Duration                                 : 2 h 9 min
Bit rate mode                            : Constant
Bit rate                                 : 384 kb/s
Channel(s)                               : 6 channels
Channel positions                        : Front: L C R, Side: L R, LFE
Sampling rate                            : 48.0 kHz
Frame rate                               : 31.250 FPS (1536 SPF)
Bit depth                                : 16 bits
Compression mode                         : Lossy
Delay relative to video                  : 2 s 2 ms
Stream size                              : 356 MiB (1%)
Language                                 : Russian
Service kind                             : Complete Main

Audio #2
ID                                       : 4353 (0x1101)
Menu ID                                  : 1 (0x1)
Format                                   : DTS
Format/Info                              : Digital Theater Systems
Format profile                           : MA / Core
Muxing mode                              : Stream extension
Codec ID                                 : 134
Duration                                 : 2 h 9 min
Bit rate mode                            : Variable / Constant
Bit rate                                 : Unknown / 1 509 kb/s
Channel(s)                               : 6 channels
Channel positions                        : Front: L C R, Side: L R, LFE
Sampling rate                            : 48.0 kHz
Frame rate                               : 93.750 FPS (512 SPF)
Bit depth                                : 24 bits
Compression mode                         : Lossless / Lossy
Language                                 : Russian

Audio #3
ID                                       : 4354 (0x1102)
Menu ID                                  : 1 (0x1)
Format                                   : DTS
Format/Info                              : Digital Theater Systems
Format profile                           : MA / Core
Muxing mode                              : Stream extension
Codec ID                                 : 134
Duration                                 : 2 h 9 min
Bit rate mode                            : Variable / Constant
Bit rate                                 : Unknown / 1 509 kb/s
Channel(s)                               : 6 channels
Channel positions                        : Front: L C R, Side: L R, LFE
Sampling rate                            : 48.0 kHz
Frame rate                               : 93.750 FPS (512 SPF)
Bit depth                                : 24 bits
Compression mode                         : Lossless / Lossy
Language                                 : Russian

Audio #4
ID                                       : 4355 (0x1103)
Menu ID                                  : 1 (0x1)
Format                                   : DTS
Format/Info                              : Digital Theater Systems
Format profile                           : MA / Core
Muxing mode                              : Stream extension
Codec ID                                 : 134
Duration                                 : 2 h 9 min
Bit rate mode                            : Variable / Constant
Bit rate                                 : Unknown / 1 509 kb/s
Channel(s)                               : 6 channels
Channel positions                        : Front: L C R, Side: L R, LFE
Sampling rate                            : 48.0 kHz
Frame rate                               : 93.750 FPS (512 SPF)
Bit depth                                : 24 bits
Compression mode                         : Lossless / Lossy
Language                                 : Russian

Audio #5
ID                                       : 4356 (0x1104)
Menu ID                                  : 1 (0x1)
Format                                   : AC-3
Format/Info                              : Audio Coding 3
Codec ID                                 : 129
Duration                                 : 2 h 9 min
Bit rate mode                            : Constant
Bit rate                                 : 384 kb/s
Channel(s)                               : 2 channels
Channel positions                        : Front: L R
Sampling rate                            : 48.0 kHz
Frame rate                               : 31.250 FPS (1536 SPF)
Bit depth                                : 16 bits
Compression mode                         : Lossy
Stream size                              : 356 MiB (1%)
Language                                 : Russian
Service kind                             : Complete Main

Audio #6
ID                                       : 4357 (0x1105)
Menu ID                                  : 1 (0x1)
Format                                   : AC-3
Format/Info                              : Audio Coding 3
Codec ID                                 : 129
Duration                                 : 2 h 9 min
Bit rate mode                            : Constant
Bit rate                                 : 192 kb/s
Channel(s)                               : 2 channels
Channel positions                        : Front: L R
Sampling rate                            : 48.0 kHz
Frame rate                               : 31.250 FPS (1536 SPF)
Bit depth                                : 16 bits
Compression mode                         : Lossy
Stream size                              : 178 MiB (0%)
Language                                 : Russian
Service kind                             : Complete Main

Audio #7
ID                                       : 4358 (0x1106)
Menu ID                                  : 1 (0x1)
Format                                   : DTS
Format/Info                              : Digital Theater Systems
Format profile                           : MA / Core
Muxing mode                              : Stream extension
Codec ID                                 : 134
Duration                                 : 2 h 9 min
Bit rate mode                            : Variable / Constant
Bit rate                                 : Unknown / 1 509 kb/s
Channel(s)                               : 6 channels
Channel positions                        : Front: L C R, Side: L R, LFE
Sampling rate                            : 48.0 kHz
Frame rate                               : 93.750 FPS (512 SPF)
Bit depth                                : 24 bits
Compression mode                         : Lossless / Lossy
Language                                 : Ukrainian

Audio #8
ID                                       : 4359 (0x1107)
Menu ID                                  : 1 (0x1)
Format                                   : DTS
Format/Info                              : Digital Theater Systems
Format profile                           : MA / Core
Muxing mode                              : Stream extension
Codec ID                                 : 134
Duration                                 : 2 h 9 min
Bit rate mode                            : Variable / Constant
Bit rate                                 : Unknown / 1 509 kb/s
Channel(s)                               : 6 channels
Channel positions                        : Front: L C R, Side: L R, LFE
Sampling rate                            : 48.0 kHz
Frame rate                               : 93.750 FPS (512 SPF)
Bit depth                                : 24 bits
Compression mode                         : Lossless / Lossy
Language                                 : English

Text #1
ID                                       : 4608 (0x1200)
Menu ID                                  : 1 (0x1)
Format                                   : PGS
Codec ID                                 : 144
Language                                 : Russian

Text #2
ID                                       : 4609 (0x1201)
Menu ID                                  : 1 (0x1)
Format                                   : PGS
Codec ID                                 : 144
Language                                 : Russian

Text #3
ID                                       : 4610 (0x1202)
Menu ID                                  : 1 (0x1)
Format                                   : PGS
Codec ID                                 : 144
Language                                 : English


We have no issue with individuals posting or re-uploading our torrents on a platform we aren't on. However, if this is something you'd like to do, please do so in a 'as-is' format. We ask that you do not create a new torrent, include all descriptions you see above including the UTR logo, tags, notes and screenshots. If you'd like to become a permanent poster on a website we don't post to, feel free to get in contact with a UniTeam member.


Category:Movies > HEVC/x265
Lang:English  English
Total Size:11.90 GB
Info Hash:beee212d2c1160d40222bc949462d41c58c09f5d
Added By:UTRHD
Date Added:25-07-2018 01:04:56

Files

File List: 
 File Size
12 monkeys 1995 1080p BluRay BDrip x265 AAC5.1 D0ct0rLew[UTR-HD].mkv11.90 GB



Comments

There are currently no comments. Be the first one to write something !