ettv 2017 1080p YIFY supergirl ita 2018 1080p vikings s05e13 ddr hindi tushy 18.12 1080p.mp4-ktr queen mp3 Aquaman Travelers bohemian rhapsody christmas Ncis wwe modern family dtone midnight texas homeland arrow etrg destruction mp3 EtHD DTOne it bbc ethd 1080p 2018 fortitude 0 2 it 2017 nfl CBC MASSEY LECTURES 2017 gold rush supernatural nightflyers star trek discovery español fgt venom 2018 ITA AVENGERS Vikings hunter killer etmovies the big bang theory Carolina Moon 1994 Z nation 1080p YIFY big bang theory XXX the flash titans s01e10 the walking dead legalporno 2018.12 game of thrones ita 2160p Age of the Living Dead 720p 2018 1080p YIFY mircrew tushyraw 1080p.mp4-ktr blue my mind evo 1 Titans Stonehearst.Asylum.Eliza.Graves.2014.BDRip.AC3.ITA 2018 movies first man 
Warning! Use a VPN When Downloading Torrents!
Your IP Address is 3.80.177.176. Location is United States
Your Internet Provider is tracking your torrent activity! Hide your IP ADDRESS with a VPN!
We strongly recommend using ExpressVPN to anonymize your torrenting. 30 Day Money Back Guarantee!
Try it Now!
ETTV Recommended TV Shows
Outlander.S04E07.WEB.H264-MEMENTO[ettv] torrent
Ray.Donovan.S06E08.WEBRip.x264-PBS[ettv] torrent
Counterpart.S02E02.WEB.H264-MEMENTO[ettv] torrent
Saturday.Night.Live.S44E09.Matt.Damon.WEB.x264-TBS[ettv] torrent

ETTV Recommended Xvid
Hunter Killer.2018.Cropped.HC.HDRip.XViD-ETRG torrent
The.House.with.a.Clock.in.Its.Walls.2018.BRRip.XViD-ETRG torrent
Fantastic.Beasts.The.Crimes.of.Grindelwald.2018.HC.HDRip.XviD.AC3-EVO torrent
Bird.Box.2018.HDRip.XviD.AC3-EVO[EtMovies] torrent

ETTV Recommended HD
A.Simple.Favor.2018.1080p.BluRay.HEVC.DTS-HD.MA.5.1-DTOne torrent
Under.the.Silver.Lake.2018.MULTi.Bluray.1080p.HEVC.DTS-HDMA.5.1-DTOne torrent
Fantastic.Beasts.The.Crimes.of.Grindelwald.2018.1080p.HC.HDRip.X264.AC3-EVO[EtHD] torrent
Bird.Box.2018.NF.1080p.WEB-DL.H264.AC3-EVO[EtHD] torrent

ETTV Recommended UHD
Mission Impossible - Fallout.2018.IMAX.Muti.UHD.2160p.Bluray.x265.Atmos.7.1[En+Hi+]-DTOne torrent
Venom 2018.MULTi.UHD.2160p.BluRay.x265.HDR.Atmos.7.1-DTOne torrent
The Nun 2018 MULTi.UHD.2160p.Bluray.x265.HDR.Atmos.7.1-DTOne torrent
River Runs Red 2018.UHD.2160p.Bluray.x265.HDR.DTS-HDMA..1-DTOne torrent

ETTV Recommended Cam
Spider-Man Into the Spider-Verse 2018 NEW HDCAM.XViD.AC3-ETRG torrent
Aquaman.2018.NEW 2018 HDCAM.x264.AC3-ETRG torrent
Bumblebee 2018 NEW SOURCE 720p HDCAM ENG-1XBET torrent
Instant.Family.2018.HDCAM.x264.AC3-ETRG torrent

ETTV Recommended Foreign
Helicopter.Eela.(2018).1080p.WEB-DL.AAC.DTOne torrent
Andhadhun.(2018).1080p.Web-DL.DDP.5.1.ESub-DTOne torrent
Hello Naan Pei Pesuren (2016) 720p UNCUT HDRip x264 [Dual Audio] [Hindi DD 2.0 - Tamil 2.0] Exclusive By -=!Dr.STAR!=- torrent
Kaatrin Mozhi (2018) [TAMIL - 720p - WEB HDRip - x264 - DD 5.1 - ESub - 2GB] - MAZE torrent


Download Torrent "Deadpool 2 (2018) Super Duper Cut (1080p BluRay 10bit x265 HEVC DTS-HD MA 7..."

IMDB Details
Description:

Foul-mouthed mutant mercenary Wade Wilson (AKA. Deadpool), brings together a team of fellow mutant rogues to protect a young boy with supernatural abilities from the brutal, time-traveling cyborg, Cable.

Genre:

Action, Adventure, Comedy

Download Torrent (Magnet)
Download Torrent (File)
Seeds: 85
Leechers: 38
Completed: 908 
Last Checked: 14-08-2018 04:54:38


Loading...
Details
Title:Deadpool 2 (2018) Super Duper Cut (1080p BluRay 10bit x265 HEVC DTS-HD MA 7...
Description:





Media Information
General
Format                                   : Matroska
Format version                           : Version 4 / Version 2
File size                                : 15.1 GiB
Duration                                 : 2 h 13 min
Overall bit rate                         : 16.1 Mb/s
Encoded date                             : UTC 2018-08-14 01:22:38
Writing application                      : mkvmerge v25.0.0 ('Prog Noir') 64-bit
Writing library                          : libebml v1.3.6 + libmatroska v1.4.9

Video
ID                                       : 1
Format                                   : HEVC
Format/Info                              : High Efficiency Video Coding
Format profile                           : Main [email protected]@Main
Codec ID                                 : V_MPEGH/ISO/HEVC
Duration                                 : 2 h 13 min
Bit rate                                 : 11.1 Mb/s
Width                                    : 1 920 pixels
Height                                   : 1 080 pixels
Display aspect ratio                     : 16:9
Frame rate mode                          : Constant
Frame rate                               : 23.976 (24000/1001) FPS
Color space                              : YUV
Chroma subsampling                       : 4:2:0
Bit depth                                : 10 bits
Bits/(Pixel*Frame)                       : 0.223
Stream size                              : 10.4 GiB (69%)
Writing library                          : x265 2.8+57-eea92165b035:[Windows][MSVC 1914][64 bit] 10bit
Encoding settings                        : cpuid=1111039 / frame-threads=4 / numa-pools=16 / wpp / no-pmode / no-pme / no-psnr / no-ssim / log-level=2 / input-csp=1 / input-res=1920x1080 / interlace=0 / total-frames=192757 / level-idc=0 / high-tier=1 / uhd-bd=0 / ref=4 / no-allow-non-conformance / no-repeat-headers / annexb / no-aud / no-hrd / info / hash=0 / no-temporal-layers / open-gop / min-keyint=23 / keyint=250 / gop-lookahead=0 / bframes=8 / b-adapt=2 / b-pyramid / bframe-bias=0 / rc-lookahead=80 / lookahead-slices=4 / scenecut=40 / radl=0 / no-intra-refresh / ctu=64 / min-cu-size=8 / rect / amp / max-tu-size=32 / tu-inter-depth=2 / tu-intra-depth=2 / limit-tu=4 / rdoq-level=2 / dynamic-rd=0.00 / no-ssim-rd / signhide / no-tskip / nr-intra=0 / nr-inter=0 / no-constrained-intra / no-strong-intra-smoothing / max-merge=3 / limit-refs=2 / limit-modes / me=3 / subme=3 / merange=57 / temporal-mvp / weightp / weightb / no-analyze-src-pics / deblock=-1:-1 / no-sao / no-sao-non-deblock / rd=6 / no-early-skip / no-rskip / no-fast-intra / no-tskip-fast / no-cu-lossless / b-intra / no-splitrd-skip / rdpenalty=0 / psy-rd=1.00 / psy-rdoq=5.00 / no-rd-refine / no-lossless / cbqpoffs=-3 / crqpoffs=-3 / rc=crf / crf=18.0 / qcomp=0.60 / qpstep=4 / stats-write=0 / stats-read=0 / ipratio=1.40 / pbratio=1.30 / aq-mode=3 / aq-strength=1.00 / cutree / zone-count=0 / no-strict-cbr / qg-size=32 / no-rc-grain / qpmax=69 / qpmin=0 / no-const-vbv / sar=0 / overscan=0 / videoformat=5 / range=0 / colorprim=2 / transfer=2 / colormatrix=2 / chromaloc=0 / display-window=0 / max-cll=0,0 / min-luma=0 / max-luma=1023 / log2-max-poc-lsb=8 / vui-timing-info / vui-hrd-info / slices=1 / no-opt-qp-pps / no-opt-ref-list-length-pps / no-multi-pass-opt-rps / scenecut-bias=0.05 / no-opt-cu-delta-qp / no-aq-motion / no-hdr / no-hdr-opt / no-dhdr10-opt / no-idr-recovery-sei / analysis-reuse-level=5 / scale-factor=0 / refine-intra=0 / refine-inter=0 / refine-mv=0 / no-limit-sao / ctu-info=0 / no-lowpass-dct / refine-mv-type=0 / copy-pic=1 / max-ausize-factor=1.0 / no-dynamic-refine / no-single-sei
Language                                 : English
Default                                  : Yes
Forced                                   : No

Audio
ID                                       : 2
Format                                   : DTS
Format/Info                              : Digital Theater Systems
Format profile                           : MA / ES Matrix / Core
Mode                                     : 16
Format settings, Endianness              : Big
Codec ID                                 : A_DTS
Duration                                 : 2 h 13 min
Bit rate mode                            : Variable / Constant / Constant
Bit rate                                 : 5 010 kb/s / 1 509 kb/s / 1 509 kb/s
Channel(s)                               : 8 channels / 7 channels / 6 channels
Channel positions                        : Front: L C R, Side: L R, Back: L R, LFE / Front: L C R, Side: L R, Back: C, LFE / Front: L C R, Side: L R, LFE
Sampling rate                            : 48.0 kHz
Frame rate                               : 93.750 FPS (512 spf)
Bit depth                                : 24 bits
Compression mode                         : Lossless / Lossy / Lossy
Stream size                              : 4.69 GiB (31%)
Language                                 : English
Default                                  : Yes
Forced                                   : No

Subtitle #1
ID                                       : 3
Format                                   : PGS
Muxing mode                              : zlib
Codec ID                                 : S_HDMV/PGS
Codec ID/Info                            : Picture based subtitle format used on BDs/HD-DVDs
Duration                                 : 52 min 55 s
Bit rate                                 : 117 b/s
Count of elements                        : 8
Stream size                              : 45.5 KiB (0%)
Title                                    : English (Forced only)
Language                                 : English
Default                                  : Yes
Forced                                   : Yes

Subtitle #2
ID                                       : 4
Format                                   : PGS
Muxing mode                              : zlib
Codec ID                                 : S_HDMV/PGS
Codec ID/Info                            : Picture based subtitle format used on BDs/HD-DVDs
Duration                                 : 2 h 13 min
Bit rate                                 : 47.9 kb/s
Count of elements                        : 4852
Stream size                              : 45.7 MiB (0%)
Title                                    : English (SDH)
Language                                 : English
Default                                  : No
Forced                                   : No

Menu
00:00:00.000                             : en:Chapter 01
00:02:31.693                             : en:Chapter 02
00:07:55.517                             : en:Chapter 03
00:10:46.229                             : en:Chapter 04
00:14:21.194                             : en:Chapter 05
00:17:42.937                             : en:Chapter 06
00:19:10.775                             : en:Chapter 07
00:24:14.370                             : en:Chapter 08
00:27:11.630                             : en:Chapter 09
00:37:17.444                             : en:Chapter 10
00:42:11.821                             : en:Chapter 11
00:44:40.428                             : en:Chapter 12
00:49:30.926                             : en:Chapter 13
00:52:20.471                             : en:Chapter 14
00:56:47.613                             : en:Chapter 15
01:01:00.073                             : en:Chapter 16
01:04:47.050                             : en:Chapter 17
01:07:22.997                             : en:Chapter 18
01:09:45.098                             : en:Chapter 19
01:11:45.426                             : en:Chapter 20
01:15:21.016                             : en:Chapter 21
01:19:19.213                             : en:Chapter 22
01:21:00.189                             : en:Chapter 23
01:24:49.543                             : en:Chapter 24
01:29:10.845                             : en:Chapter 25
01:32:30.420                             : en:Chapter 26
01:36:11.391                             : en:Chapter 27
01:38:18.851                             : en:Chapter 28
01:42:06.329                             : en:Chapter 29
01:44:18.711                             : en:Chapter 30
01:46:03.774                             : en:Chapter 31
01:48:06.730                             : en:Chapter 32
01:51:31.977                             : en:Chapter 33
01:55:05.398                             : en:Chapter 34
01:58:16.047                             : en:Chapter 35
02:02:04.317                             : en:Chapter 36

Source Information
Release: Deadpool.2.2018.Super.Duper.Cut.1080p.DTS-HD.MA.7.1.AVC.REMUX-FraMeSToR


UTR wrote:

Note From UTR
We have no issue with individuals posting or re-uploading our torrents on a platform we aren't on. However, if this is something you'd like to do, please do so in a 'as-is' format. We ask that you do not create a new torrent, include all descriptions you see above including the UTR logo, tags, notes and screenshots. If you'd like to become a permanent poster on a website we don't post to, feel free to get in contact with a UniTeam member.

If possible please donate: BTC 1QA5fum5AyXvWzdVCkQzUNvw3Ef15fHRaR


Category:Movies > HEVC/x265
Lang:English  English
Total Size:15.08 GB
Info Hash:8e7fd152b9769c5318eddb39e9f10d36de6345c6
Added By:UTRHD
Date Added:14-08-2018 04:54:32

Files

File List: 
 File Size
Deadpool.2.(2018).Super.Duper.Cut.1080p.BluRay.10-bit.x265.DTS-HD.MA.7.1 Qman[UTR].(5769E840).mkv15.08 GB



Comments

There are currently no comments. Be the first one to write something !