ettv 2017 1080p YIFY supergirl ita 2018 1080p vikings s05e13 ddr hindi tushy 18.12 1080p.mp4-ktr queen mp3 Aquaman Travelers bohemian rhapsody christmas Ncis wwe modern family dtone midnight texas homeland arrow etrg destruction mp3 EtHD DTOne it bbc ethd 1080p 2018 fortitude 0 2 it 2017 nfl CBC MASSEY LECTURES 2017 gold rush supernatural nightflyers star trek discovery español fgt venom 2018 ITA AVENGERS Vikings hunter killer etmovies the big bang theory Carolina Moon 1994 Z nation 1080p YIFY big bang theory XXX the flash titans s01e10 the walking dead legalporno 2018.12 game of thrones ita 2160p Age of the Living Dead 720p 2018 1080p YIFY mircrew tushyraw 1080p.mp4-ktr blue my mind evo 1 Titans Stonehearst.Asylum.Eliza.Graves.2014.BDRip.AC3.ITA 2018 movies first man 
Warning! Use a VPN When Downloading Torrents!
Your IP Address is 3.80.177.176. Location is United States
Your Internet Provider is tracking your torrent activity! Hide your IP ADDRESS with a VPN!
We strongly recommend using ExpressVPN to anonymize your torrenting. 30 Day Money Back Guarantee!
Try it Now!
ETTV Recommended TV Shows
Outlander.S04E07.WEB.H264-MEMENTO[ettv] torrent
Ray.Donovan.S06E08.WEBRip.x264-PBS[ettv] torrent
Counterpart.S02E02.WEB.H264-MEMENTO[ettv] torrent
Saturday.Night.Live.S44E09.Matt.Damon.WEB.x264-TBS[ettv] torrent

ETTV Recommended Xvid
Hunter Killer.2018.Cropped.HC.HDRip.XViD-ETRG torrent
The.House.with.a.Clock.in.Its.Walls.2018.BRRip.XViD-ETRG torrent
Fantastic.Beasts.The.Crimes.of.Grindelwald.2018.HC.HDRip.XviD.AC3-EVO torrent
Bird.Box.2018.HDRip.XviD.AC3-EVO[EtMovies] torrent

ETTV Recommended HD
A.Simple.Favor.2018.1080p.BluRay.HEVC.DTS-HD.MA.5.1-DTOne torrent
Under.the.Silver.Lake.2018.MULTi.Bluray.1080p.HEVC.DTS-HDMA.5.1-DTOne torrent
Fantastic.Beasts.The.Crimes.of.Grindelwald.2018.1080p.HC.HDRip.X264.AC3-EVO[EtHD] torrent
Bird.Box.2018.NF.1080p.WEB-DL.H264.AC3-EVO[EtHD] torrent

ETTV Recommended UHD
Mission Impossible - Fallout.2018.IMAX.Muti.UHD.2160p.Bluray.x265.Atmos.7.1[En+Hi+]-DTOne torrent
Venom 2018.MULTi.UHD.2160p.BluRay.x265.HDR.Atmos.7.1-DTOne torrent
The Nun 2018 MULTi.UHD.2160p.Bluray.x265.HDR.Atmos.7.1-DTOne torrent
River Runs Red 2018.UHD.2160p.Bluray.x265.HDR.DTS-HDMA..1-DTOne torrent

ETTV Recommended Cam
Spider-Man Into the Spider-Verse 2018 NEW HDCAM.XViD.AC3-ETRG torrent
Aquaman.2018.NEW 2018 HDCAM.x264.AC3-ETRG torrent
Bumblebee 2018 NEW SOURCE 720p HDCAM ENG-1XBET torrent
Instant.Family.2018.HDCAM.x264.AC3-ETRG torrent

ETTV Recommended Foreign
Helicopter.Eela.(2018).1080p.WEB-DL.AAC.DTOne torrent
Andhadhun.(2018).1080p.Web-DL.DDP.5.1.ESub-DTOne torrent
Hello Naan Pei Pesuren (2016) 720p UNCUT HDRip x264 [Dual Audio] [Hindi DD 2.0 - Tamil 2.0] Exclusive By -=!Dr.STAR!=- torrent
Kaatrin Mozhi (2018) [TAMIL - 720p - WEB HDRip - x264 - DD 5.1 - ESub - 2GB] - MAZE torrent


Download Torrent "Adventures of Captain Marvel Season 1 (1941) 1080p Bluray BDrip x265 2.0 A..."

IMDB Details
Description:

N/A

Genre:

N/A

Download Torrent (Magnet)
Download Torrent (File)
Seeds: 214
Leechers: 173
Completed: 381 
Last Checked: 25-08-2018 00:16:57


Details
Title:Adventures of Captain Marvel Season 1 (1941) 1080p Bluray BDrip x265 2.0 A...
Description:



Screenshots
Source



Encode




Media Information

Complete name                            : Adventures of Captain Marvel S01E01 Curse of the Scorpion 1080p Bluray BDrip  x265 2.0 AAC D0ct0rLew[UTR-HD].mkv
Format                                   : Matroska
Format version                           : Version 4 / Version 2
File size                                : 1.37 GiB
Duration                                 : 30 min 11 s
Overall bit rate                         : 6 500 kb/s
Encoded date                             : UTC 2018-08-20 18:49:28
Writing application                      : mkvmerge v15.0.0 ('Duel with the Devil') 64-bit
Writing library                          : libebml v1.3.5 + libmatroska v1.4.5

Video
ID                                       : 3
Format                                   : HEVC
Format/Info                              : High Efficiency Video Coding
Format profile                           : Main [email protected]@Main
Codec ID                                 : V_MPEGH/ISO/HEVC
Duration                                 : 30 min 11 s
Bit rate                                 : 6 177 kb/s
Width                                    : 1 920 pixels
Height                                   : 1 080 pixels
Display aspect ratio                     : 16:9
Frame rate mode                          : Constant
Frame rate                               : 23.976 (24000/1001) FPS
Color space                              : YUV
Chroma subsampling                       : 4:2:0
Bit depth                                : 10 bits
Bits/(Pixel*Frame)                       : 0.124
Stream size                              : 1.30 GiB (95%)
Writing library                          : x265 2.8+58-d17bc7714ed2:[Windows][MSVC 1914][64 bit] 10bit
Encoding settings                        : cpuid=1049583 / frame-threads=3 / numa-pools=8 / wpp / no-pmode / no-pme / no-psnr / no-ssim / log-level=2 / input-csp=1 / input-res=1920x1080 / interlace=0 / total-frames=43421 / level-idc=0 / high-tier=1 / uhd-bd=0 / ref=4 / no-allow-non-conformance / no-repeat-headers / annexb / no-aud / no-hrd / info / hash=0 / no-temporal-layers / open-gop / min-keyint=23 / keyint=250 / gop-lookahead=0 / bframes=8 / b-adapt=2 / b-pyramid / bframe-bias=0 / rc-lookahead=90 / lookahead-slices=4 / scenecut=40 / radl=0 / no-intra-refresh / ctu=64 / min-cu-size=8 / rect / amp / max-tu-size=32 / tu-inter-depth=2 / tu-intra-depth=2 / limit-tu=4 / rdoq-level=2 / dynamic-rd=0.00 / no-ssim-rd / signhide / no-tskip / nr-intra=0 / nr-inter=0 / no-constrained-intra / no-strong-intra-smoothing / max-merge=3 / limit-refs=2 / limit-modes / me=3 / subme=3 / merange=92 / temporal-mvp / weightp / weightb / no-analyze-src-pics / deblock=-1:-1 / sao / no-sao-non-deblock / rd=6 / no-early-skip / rskip / no-fast-intra / no-tskip-fast / no-cu-lossless / b-intra / no-splitrd-skip / rdpenalty=0 / psy-rd=1.40 / psy-rdoq=1.00 / no-rd-refine / no-lossless / cbqpoffs=0 / crqpoffs=0 / rc=crf / crf=19.5 / qcomp=0.50 / qpstep=4 / stats-write=0 / stats-read=0 / ipratio=1.40 / pbratio=1.30 / aq-mode=2 / aq-strength=1.30 / cutree / zone-count=0 / no-strict-cbr / qg-size=32 / no-rc-grain / qpmax=69 / qpmin=0 / no-const-vbv / sar=0 / overscan=0 / videoformat=5 / range=0 / colorprim=2 / transfer=2 / colormatrix=2 / chromaloc=0 / display-window=0 / max-cll=0,0 / min-luma=0 / max-luma=1023 / log2-max-poc-lsb=8 / vui-timing-info / vui-hrd-info / slices=1 / no-opt-qp-pps / no-opt-ref-list-length-pps / no-multi-pass-opt-rps / scenecut-bias=0.05 / no-opt-cu-delta-qp / no-aq-motion / no-hdr / no-hdr-opt / no-dhdr10-opt / no-idr-recovery-sei / analysis-reuse-level=5 / scale-factor=0 / refine-intra=0 / refine-inter=0 / refine-mv=0 / no-limit-sao / ctu-info=0 / no-lowpass-dct / refine-mv-type=0 / copy-pic=1 / max-ausize-factor=1.0 / no-dynamic-refine / no-single-sei
Default                                  : Yes
Forced                                   : No

Audio #1
ID                                       : 2
Format                                   : AAC
Format/Info                              : Advanced Audio Codec
Format profile                           : LC
Codec ID                                 : A_AAC-2
Duration                                 : 30 min 11 s
Bit rate                                 : 192 kb/s
Channel(s)                               : 2 channels
Channel positions                        : Front: L R
Sampling rate                            : 48.0 kHz
Frame rate                               : 46.875 FPS (1024 SPF)
Compression mode                         : Lossy
Delay relative to video                  : 9 ms
Stream size                              : 41.5 MiB (3%)
Language                                 : English
Default                                  : Yes
Forced                                   : No

Audio #2
ID                                       : 4
Format                                   : AAC
Format/Info                              : Advanced Audio Codec
Format profile                           : LC
Codec ID                                 : A_AAC-2
Duration                                 : 30 min 10 s
Bit rate                                 : 128 kb/s
Channel(s)                               : 2 channels
Channel positions                        : Front: L R
Sampling rate                            : 48.0 kHz
Frame rate                               : 46.875 FPS (1024 SPF)
Compression mode                         : Lossy
Delay relative to video                  : 9 ms
Stream size                              : 27.6 MiB (2%)
Title                                    : Commentary by film historian Tom Weaver
Language                                 : English
Default                                  : No
Forced                                   : No

Text
ID                                       : 1
Format                                   : UTF-8
Codec ID                                 : S_TEXT/UTF8
Codec ID/Info                            : UTF-8 Plain Text
Duration                                 : 27 min 40 s
Bit rate                                 : 46 b/s
Count of elements                        : 252
Stream size                              : 9.49 KiB (0%)
Language                                 : English
Default                                  : Yes
Forced                                   : No

Source Media Information

Unique ID                                : 15040087681432275296206696853389438989 (0xB509D92ED7A652E36579A19B3F7F00D)
Complete name                            : Adventures.of.Captain.Marvel.S01E01.Curse.of.the.Scorpion.1080p.BluRay.REMUX.AVC.FLAC.2.0-EPSiLON.mkv
Format                                   : Matroska
Format version                           : Version 4 / Version 2
File size                                : 5.32 GiB
Duration                                 : 30 min 11 s
Overall bit rate mode                    : Variable
Overall bit rate                         : 25.2 Mb/s
Encoded date                             : UTC 2018-02-06 18:53:24
Writing application                      : mkvmerge v20.0.0 ('I Am The Sun') 64-bit
Writing library                          : libebml v1.3.5 + libmatroska v1.4.8

Video
ID                                       : 1
Format                                   : AVC
Format/Info                              : Advanced Video Codec
Format profile                           : [email protected]
Format settings                          : CABAC / 4 Ref Frames
Format settings, CABAC                   : Yes
Format settings, RefFrames               : 4 frames
Codec ID                                 : V_MPEG4/ISO/AVC
Duration                                 : 30 min 11 s
Bit rate mode                            : Variable
Bit rate                                 : 24.8 Mb/s
Maximum bit rate                         : 35.0 Mb/s
Width                                    : 1 920 pixels
Height                                   : 1 080 pixels
Display aspect ratio                     : 16:9
Frame rate mode                          : Constant
Frame rate                               : 23.976 (24000/1001) FPS
Standard                                 : NTSC
Color space                              : YUV
Chroma subsampling                       : 4:2:0
Bit depth                                : 8 bits
Scan type                                : Progressive
Bits/(Pixel*Frame)                       : 0.499
Stream size                              : 5.23 GiB (98%)
Title                                    : MPEG-4 AVC Video / 24814 kbps / 1080p / 23.976 fps / 16:9 / High Profile 4.1
Language                                 : English
Default                                  : Yes
Forced                                   : No
Color range                              : Limited
Color primaries                          : BT.709
Transfer characteristics                 : BT.709
Matrix coefficients                      : BT.709

Audio #1
ID                                       : 2
Format                                   : FLAC
Format/Info                              : Free Lossless Audio Codec
Codec ID                                 : A_FLAC
Duration                                 : 30 min 10 s
Bit rate mode                            : Variable
Bit rate                                 : 233 kb/s
Channel(s)                               : 2 channels
Channel positions                        : Front: L R
Sampling rate                            : 48.0 kHz
Frame rate                               : 11.719 FPS (4096 SPF)
Bit depth                                : 16 bits
Stream size                              : 50.3 MiB (1%)
Title                                    : FLAC Audio / 2.0 / 48 kHz / 233 kbps / 16-bit
Writing library                          : libFLAC 1.2.1 (UTC 2007-09-17)
Language                                 : English
Default                                  : Yes
Forced                                   : No

Audio #2
ID                                       : 3
Format                                   : AC-3
Format/Info                              : Audio Coding 3
Codec ID                                 : A_AC3
Duration                                 : 30 min 11 s
Bit rate mode                            : Constant
Bit rate                                 : 192 kb/s
Channel(s)                               : 2 channels
Channel positions                        : Front: L R
Sampling rate                            : 48.0 kHz
Frame rate                               : 31.250 FPS (1536 SPF)
Bit depth                                : 16 bits
Compression mode                         : Lossy
Stream size                              : 41.5 MiB (1%)
Title                                    : Commentary by film historian Tom Weaver
Language                                 : English
Service kind                             : Complete Main
Default                                  : No
Forced                                   : No

Note 1 the bluray didn't have subs at all I found some and adjusted the timing and made corrections for this. 2 comments made on http://www.blu-ray.com/movies/Adventures-of-Captain-Marvel-Blu-ray/170001/ hold true "Source hasn't been subjected to an exhaustive restoration, showing considerable wear and tear with scratches, speckling, rough reel changes, and chemical damage."  And
There are mild fluctuations in volume throughout the serial, but the most concentrated area of concern is found in chapter 12, around the 8:00 mark, where damage is most prevalent for a few minutes of screen time.  Although That site has never ever reported the correct aspect ratio on any disk I know of & they didn't do it for this 1 either You can see that by just looking at the media info for the source I used.



We have no issue with individuals posting or re-uploading our torrents on a platform we aren't on. However, if this is something you'd like to do, please do so in a 'as-is' format. We ask that you do not create a new torrent, include all descriptions you see above including the UTR logo, tags, notes and screenshots. If you'd like to become a permanent poster on a website we don't post to, feel free to get in contact with a UniTeam member.

Category:TV > HEVC/x265
Lang:English  English
Total Size:15.46 GB
Info Hash:c4f74c2f3632218a3ada25925c4e8a7af4c89310
Added By:UTRHD
Date Added:25-08-2018 00:16:51

Files

File List: 
 File Size
Adventures of Captain Marvel S01E01 Curse of the Scorpion 1080p Bluray BDrip x265 2.0 AAC D0ct0rLew[UTR-HD].mkv1.37 GB
Adventures of Captain Marvel S01E02 The Guillotine 1080p Bluray BDrip x265 2.0 AAC D0ct0rLew[UTR-HD].mkv1.12 GB
Adventures of Captain Marvel S01E03 Time Bomb 1080p Bluray BDrip x265 2.0 AAC D0ct0rLew[UTR-HD].mkv1.48 GB
Adventures of Captain Marvel S01E04 Death Takes the Wheel 1080p Bluray BDrip x265 2.0 AAC D0ct0rLew[UTR-HD].mkv1.37 GB
Adventures of Captain Marvel S01E05 The Scorpion Strikes 1080p Bluray BDrip x265 2.0 AAC D0ct0rLew[UTR-HD].mkv1.45 GB
Adventures of Captain Marvel S01E06 Lens of Death 1080p Bluray BDrip x265 2.0 AAC D0ct0rLew[UTR-HD].mkv990 MB
Adventures of Captain Marvel S01E07 Human Targets 1080p Bluray BDrip x265 2.0 AAC D0ct0rLew[UTR-HD].mkv1.19 GB
Adventures of Captain Marvel S01E08 Boomerang 1080p Bluray BDrip x265 2.0 AAC D0ct0rLew[UTR-HD].mkv1.41 GB
Adventures of Captain Marvel S01E09 Dead Mans Trap 1080p Bluray BDrip x265 2.0 AAC D0ct0rLew[UTR-HD].mkv1.33 GB
Adventures of Captain Marvel S01E10 Doom Ship 1080p Bluray BDrip x265 2.0 AAC D0ct0rLew[UTR-HD].mkv1.30 GB
Adventures of Captain Marvel S01E11 Valley of Death 1080p Bluray BDrip x265 2.0 AAC D0ct0rLew[UTR-HD].mkv1.27 GB
Adventures of Captain Marvel S01E12 Captain Marvels Secret 1080p Bluray BDrip x265 2.0 AAC D0ct0rLew[UTR-HD].mkv1.20 GB



Comments

There are currently no comments. Be the first one to write something !