it ddr Bellator 213 The Walking dead 2018 ITA ufc on fox 31 wwe mission impossible fallout 1080p it 2017 Home Fires S01E01 ethd 0 vikings s05e13 Vikings BBC outlander ita 2018 venom hunter killer titans s01e10 outlander s04e07 christmas Titans nightflyers blue my mind bellator 4k big bang theory modern family arrow español ettv the nun 2018 2160p anal blancanieves 2012 720 the big bang theory HINDI dtone The flash tushyraw 1080p.mp4-ktr Bohemian Rhapsody ita a star is born Mission Impossible ufc 1080p fantastic beasts ita etmovies travelers nfl aquaman EVO 2160p game of thrones first man Xxx bohemian rhapsody legalporno 2018.12 fgt south park AVENGERS supernatural arrow fortitude venom ita evo tushy 18.12 1080p.mp4-ktr etrg 2018 1080p YIFY 1 blancanieves 2012 
Warning! Use a VPN When Downloading Torrents!
Your IP Address is 54.164.198.240. Location is United States
Your Internet Provider is tracking your torrent activity! Hide your IP ADDRESS with a VPN!
We strongly recommend using ExpressVPN to anonymize your torrenting. 30 Day Money Back Guarantee!
Try it Now!
ETTV Recommended TV Shows
Fortitude.S03E02.HDTV.720p.AAC2.0.H.264-TVC[ettv] torrent
NCIS.Los.Angeles.S10E11.HDTV.x264-KILLERS[ettv] torrent
Berlin.Station.S03E03.WEB.h264-TBS[ettv] torrent
WWE TLC 2018 PPV WEB h264-HEEL [TJET] torrent

ETTV Recommended Xvid
Hunter Killer.2018.Cropped.HC.HDRip.XViD-ETRG torrent
The.House.with.a.Clock.in.Its.Walls.2018.BRRip.XViD-ETRG torrent
Fantastic.Beasts.The.Crimes.of.Grindelwald.2018.HC.HDRip.XviD.AC3-EVO torrent
Bird.Box.2018.HDRip.XviD.AC3-EVO[EtMovies] torrent

ETTV Recommended HD
Under.the.Silver.Lake.2018.MULTi.Bluray.1080p.HEVC.DTS-HDMA.5.1-DTOne torrent
Fantastic.Beasts.The.Crimes.of.Grindelwald.2018.1080p.HC.HDRip.X264.AC3-EVO[EtHD] torrent
Bird.Box.2018.NF.1080p.WEB-DL.H264.AC3-EVO[EtHD] torrent
Johnny English Strikes Again 2018.720p.BDRip.X264.AC3-EVO[EtHD] torrent

ETTV Recommended UHD
Mission Impossible - Fallout.2018.IMAX.Muti.UHD.2160p.Bluray.x265.Atmos.7.1[En+Hi+]-DTOne torrent
Venom 2018.MULTi.UHD.2160p.BluRay.x265.HDR.Atmos.7.1-DTOne torrent
The Nun 2018 MULTi.UHD.2160p.Bluray.x265.HDR.Atmos.7.1-DTOne torrent
River Runs Red 2018.UHD.2160p.Bluray.x265.HDR.DTS-HDMA..1-DTOne torrent

ETTV Recommended Cam
Spider-Man Into the Spider-Verse 2018 NEW HDCAM.XViD.AC3-ETRG torrent
Aquaman.2018.NEW 2018 HDCAM.x264.AC3-ETRG torrent
Instant.Family.2018.HDCAM.x264.AC3-ETRG torrent
Bumblebee 2018 NEW HDCAM x264 AC3-ETRG torrent

ETTV Recommended Foreign
Helicopter.Eela.(2018).1080p.WEB-DL.AAC.DTOne torrent
Andhadhun.(2018).1080p.Web-DL.DDP.5.1.ESub-DTOne torrent
Hello Naan Pei Pesuren (2016) 720p UNCUT HDRip x264 [Dual Audio] [Hindi DD 2.0 - Tamil 2.0] Exclusive By -=!Dr.STAR!=- torrent
Kaatrin Mozhi (2018) [TAMIL - 720p - WEB HDRip - x264 - DD 5.1 - ESub - 2GB] - MAZE torrent


Download Torrent "Cleverman Season 1 1080p BluRay BDrip x265 AAC 5.1 D0ct0rLew[UTR-HD]"

IMDB Details
Description:

N/A

Genre:

N/A

Download Torrent (Magnet)
Seeds: 69
Leechers: 105
Completed: 450 
Last Checked: 13-09-2018 22:52:21


Details
Title:Cleverman Season 1 1080p BluRay BDrip x265 AAC 5.1 D0ct0rLew[UTR-HD]
Description:






Screenshots
Source



Encode



Media Information

Unique ID                                : 299808556167837744086441103489211432766 (0xE18D07102F5ED41EBF7409604939FF3E)
Complete name                            :Cleverman S01E01 First Contact   1080p BluRay BDrip x265 AAC 5.1  D0ct0rLew[UTR-HD].mkv
Format                                   : Matroska
Format version                           : Version 4 / Version 2
File size                                : 3.02 GiB
Duration                                 : 52 min 3 s
Overall bit rate                         : 8 303 kb/s
Movie name                               : Cleverman S01E01 First Contact
Encoded date                             : UTC 2018-09-10 13:39:13
Writing application                      : mkvmerge v26.0.0 ('In The Game') 64-bit
Writing library                          : libebml v1.3.6 + libmatroska v1.4.9

Video
ID                                       : 3
Format                                   : HEVC
Format/Info                              : High Efficiency Video Coding
Format profile                           : Main [email protected]@Main
Codec ID                                 : V_MPEGH/ISO/HEVC
Duration                                 : 52 min 3 s
Bit rate                                 : 7 725 kb/s
Width                                    : 1 920 pixels
Height                                   : 1 080 pixels
Display aspect ratio                     : 16:9
Frame rate mode                          : Constant
Frame rate                               : 25.000 FPS
Color space                              : YUV
Chroma subsampling                       : 4:2:0
Bit depth                                : 10 bits
Bits/(Pixel*Frame)                       : 0.149
Stream size                              : 2.81 GiB (93%)
Writing library                          : x265 2.8+66-88ee12651e30:[Windows][MSVC 1915][64 bit] 10bit
Encoding settings                        : cpuid=1111039 / frame-threads=3 / numa-pools=8 / wpp / no-pmode / no-pme / no-psnr / no-ssim / log-level=2 / input-csp=1 / input-res=1920x1080 / interlace=0 / total-frames=78084 / level-idc=0 / high-tier=1 / uhd-bd=0 / ref=4 / no-allow-non-conformance / no-repeat-headers / annexb / no-aud / no-hrd / info / hash=0 / no-temporal-layers / open-gop / min-keyint=25 / keyint=250 / gop-lookahead=0 / bframes=8 / b-adapt=2 / b-pyramid / bframe-bias=0 / rc-lookahead=90 / lookahead-slices=4 / scenecut=40 / radl=0 / no-intra-refresh / ctu=64 / min-cu-size=8 / no-rect / no-amp / max-tu-size=32 / tu-inter-depth=2 / tu-intra-depth=2 / limit-tu=4 / rdoq-level=2 / dynamic-rd=0.00 / no-ssim-rd / signhide / no-tskip / nr-intra=0 / nr-inter=0 / no-constrained-intra / no-strong-intra-smoothing / max-merge=3 / limit-refs=2 / limit-modes / me=3 / subme=3 / merange=92 / temporal-mvp / weightp / weightb / no-analyze-src-pics / deblock=-1:-1 / sao / no-sao-non-deblock / rd=6 / no-early-skip / rskip / no-fast-intra / no-tskip-fast / no-cu-lossless / b-intra / no-splitrd-skip / rdpenalty=0 / psy-rd=1.40 / psy-rdoq=1.00 / no-rd-refine / no-lossless / cbqpoffs=3 / crqpoffs=3 / rc=crf / crf=15.0 / qcomp=0.60 / qpstep=4 / stats-write=0 / stats-read=0 / ipratio=1.40 / pbratio=1.30 / aq-mode=2 / aq-strength=1.00 / cutree / zone-count=0 / no-strict-cbr / qg-size=32 / no-rc-grain / qpmax=69 / qpmin=0 / no-const-vbv / sar=0 / overscan=0 / videoformat=5 / range=0 / colorprim=2 / transfer=2 / colormatrix=2 / chromaloc=0 / display-window=0 / max-cll=0,0 / min-luma=0 / max-luma=1023 / log2-max-poc-lsb=8 / vui-timing-info / vui-hrd-info / slices=1 / no-opt-qp-pps / no-opt-ref-list-length-pps / no-multi-pass-opt-rps / scenecut-bias=0.05 / no-opt-cu-delta-qp / no-aq-motion / no-hdr / no-hdr-opt / no-dhdr10-opt / no-idr-recovery-sei / analysis-reuse-level=5 / scale-factor=0 / refine-intra=0 / refine-inter=0 / refine-mv=0 / no-limit-sao / ctu-info=0 / no-lowpass-dct / refine-mv-type=0 / copy-pic=1 / max-ausize-factor=1.0 / no-dynamic-refine / no-single-sei
Default                                  : Yes
Forced                                   : No

Audio
ID                                       : 2
Format                                   : AAC
Format/Info                              : Advanced Audio Codec
Format profile                           : LC
Codec ID                                 : A_AAC-2
Duration                                 : 52 min 3 s
Bit rate                                 : 576 kb/s
Channel(s)                               : 6 channels
Channel positions                        : Front: L C R, Side: L R, LFE
Sampling rate                            : 48.0 kHz
Frame rate                               : 46.875 FPS (1024 SPF)
Compression mode                         : Lossy
Delay relative to video                  : 9 ms
Stream size                              : 214 MiB (7%)
Language                                 : English
Default                                  : Yes
Forced                                   : No

Text
ID                                       : 1
Format                                   : UTF-8
Codec ID                                 : S_TEXT/UTF8
Codec ID/Info                            : UTF-8 Plain Text
Duration                                 : 50 min 59 s
Bit rate                                 : 60 b/s
Count of elements                        : 642
Stream size                              : 22.5 KiB (0%)
Language                                 : English
Default                                  : Yes
Forced                                   : No

Menu
00:00:00.000                             : en:Chapter 1
00:08:08.280                             : en:Chapter 2
00:18:17.880                             : en:Chapter 3
00:29:33.880                             : en:Chapter 4
00:41:18.360                             : en:Chapter 5
00:50:56.480                             : en:Chapter 6

Source Media Information

Unique ID                                : 252134052498293346067542681734637406059 (0xBDAF408E40E7871B969D3DA2DB93C76B)
Complete name                            : Cleverman.S01E01.First.Contact.1080i.BluRay.REMUX.AVC.DTS-HD.MA.5.1-EPSiLON.mkv
Format                                   : Matroska
Format version                           : Version 4 / Version 2
File size                                : 11.3 GiB
Duration                                 : 52 min 3 s
Overall bit rate mode                    : Variable
Overall bit rate                         : 31.0 Mb/s
Movie name                               : Cleverman S01E01 First Contact
Encoded date                             : UTC 2017-11-20 11:07:55
Writing application                      : mkvmerge v18.0.0 ('Apricity') 64-bit
Writing library                          : libebml v1.3.5 + libmatroska v1.4.8

Video
ID                                       : 1
Format                                   : AVC
Format/Info                              : Advanced Video Codec
Format profile                           : [email protected]
Format settings                          : CABAC / 4 Ref Frames
Format settings, CABAC                   : Yes
Format settings, RefFrames               : 4 frames
Codec ID                                 : V_MPEG4/ISO/AVC
Duration                                 : 52 min 3 s
Bit rate mode                            : Variable
Bit rate                                 : 29.1 Mb/s
Maximum bit rate                         : 35.0 Mb/s
Width                                    : 1 920 pixels
Height                                   : 1 080 pixels
Display aspect ratio                     : 16:9
Frame rate mode                          : Constant
Frame rate                               : 25.000 FPS
Standard                                 : PAL
Color space                              : YUV
Chroma subsampling                       : 4:2:0
Bit depth                                : 8 bits
Scan type                                : MBAFF
Bits/(Pixel*Frame)                       : 0.562
Stream size                              : 10.6 GiB (94%)
Title                                    : MPEG-4 AVC Video / 29124 kbps / 1080i / 25 fps / 16:9 / High Profile 4.1
Language                                 : English
Default                                  : Yes
Forced                                   : No
Color range                              : Limited
Color primaries                          : BT.709
Transfer characteristics                 : BT.709
Matrix coefficients                      : BT.709

Audio
ID                                       : 2
Format                                   : DTS
Format/Info                              : Digital Theater Systems
Format profile                           : MA / Core
Codec ID                                 : A_DTS
Duration                                 : 52 min 3 s
Bit rate mode                            : Variable / Constant
Bit rate                                 : 1 866 kb/s / 1 509 kb/s
Channel(s)                               : 6 channels
Channel positions                        : Front: L C R, Side: L R, LFE
Sampling rate                            : 48.0 kHz
Frame rate                               : 93.750 FPS (512 SPF)
Bit depth                                : 16 bits
Compression mode                         : Lossless / Lossy
Stream size                              : 695 MiB (6%)
Title                                    : DTS-HD Master Audio / 5.1 / 48 kHz / 1866 kbps / 16-bit
Language                                 : English
Default                                  : Yes
Forced                                   : No

Text
ID                                       : 3
Format                                   : PGS
Codec ID                                 : S_HDMV/PGS
Codec ID/Info                            : Picture based subtitle format used on BDs/HD-DVDs
Duration                                 : 50 min 53 s
Bit rate                                 : 47.7 kb/s
Count of elements                        : 1282
Stream size                              : 17.4 MiB (0%)
Title                                    : SDH
Language                                 : English
Default                                  : No
Forced                                   : No

Menu
00:00:00.000                             : en:Chapter 1
00:08:08.280                             : en:Chapter 2
00:18:17.880                             : en:Chapter 3
00:29:33.880                             : en:Chapter 4
00:41:18.360                             : en:Chapter 5
00:50:56.480                             : en:Chapter 6


We have no issue with individuals posting or re-uploading our torrents on a platform we aren't on. However, if this is something you'd like to do, please do so in a 'as-is' format. We ask that you do not create a new torrent, include all descriptions you see above including the UTR logo, tags, notes and screenshots. If you'd like to become a permanent poster on a website we don't post to, feel free to get in contact with a UniTeam member.


Category:TV > HEVC/x265
Lang:English  English
Total Size:14.72 GB
Info Hash:e7976177811a4cce208028578ed8e95da44db8f0
Added By:UTRHD
Date Added:13-09-2018 22:52:08

Files

File List: 
 File Size
Cleverman S01E01 First Contact 1080p BluRay BDrip x265 AAC 5.1 D0ct0rLew[UTR-HD].mkv3.02 GB
Cleverman S01E02 Containment 1080p BluRay BDrip x265 AAC 5.1 D0ct0rLew[UTR-HD].mkv2.59 GB
Cleverman S01E03 A Free Ranger 1080p BluRay BDrip x265 AAC 5.1 D0ct0rLew[UTR-HD].mkv2.03 GB
Cleverman S01E04 Sun and Moon 1080p BluRay BDrip x265 AAC 5.1 D0ct0rLew[UTR-HD].mkv2.50 GB
Cleverman S01E05 A Man of Vision 1080p BluRay BDrip x265 AAC 5.1 D0ct0rLew[UTR-HD].mkv1.97 GB
Cleverman S01E06 Terra Nullius 1080p BluRay BDrip x265 AAC 5.1 D0ct0rLew[UTR-HD].mkv2.61 GB



Comments

There are currently no comments. Be the first one to write something !