kgf sarkar Manikarnika star trek discovery thakrey Xxx kedarnath thackeray malayalam the accidental prime minister supernatural evo aquaman telugu odiyan the flash why cheat india great british bake off s09e10 vikings tushy 18.12 1080p.mp4-ktr charlie chaplin 2 1080P Hindi mirzapur ettv mr majnu the grand tour 2018 ita Adanga Maru Tin Star etmovies dtone uri EVO malayalam 2018 movies AQUAMAN ita Bumblebee ethd ITA zero etrg venom f2 1080p 2018 maari 2 Game Of Thrones viswasam TamilRockers Kannada simmba Kannada ddr simbha tushyraw 1080p.mp4-ktr mortal engines simba petta DTOne uri the surgical strike kung fu the legend Young justice tamil robot 2.0 it brazzers it 2017 2.0 thakre Njan Prakashan glass fgt bohemian rhapsody Star Trek Discovery S02E02 
Warning! Use a VPN When Downloading Torrents!
Your IP Address is 54.197.24.206. Location is United States
Your Internet Provider is tracking your torrent activity! Hide your IP ADDRESS with a VPN!
We strongly recommend using ExpressVPN to anonymize your torrenting. 30 Day Money Back Guarantee!
Try it Now!
ETTV Recommended TV Shows
The.Passage.S01E06.WEB.x264-TBS[ettv] torrent
The.Good.Doctor.S02E15.HDTV.x264-KILLERS[ettv] torrent
I.Am.the.Night.S01E04.WEBRip.x264-TBS[ettv] torrent
Magnum.P.I.2018.S01E15.HDTV.x264-SVA[ettv] torrent
Manifest.S01E16.HDTV.x264-KILLERS[ettv] torrent
WWE Monday Night Raw 2019 02 18 HDTV x264-NWCHD [TJET] torrent

ETTV Recommended SD
Mary.Queen.of.Scots.2018.BRRip.XViD.AC3-ETRG torrent
The.Possession.of.Hannah.Grace.2018.BRRip.XViD-ETRG torrent
Nightshooters 2018.BRRip.XViD-ETRG torrent
Serenity.2019.BRRip.XViD-ETRG torrent

ETTV Recommended HD
The.Appearance.2018.BluRay.1080p.HEVC.DTS-HD.MA5.1-DTOne torrent
You Might Be The Killer 2018.1080p.Blu-ray.HEVC.DTS-HDMA.5.1-DTOne torrent
Nightshooters.2018.1080p.Blu-ray.1080p.HEVC.DTS-HDMA.5.1-DTOne torrent
Serenity.2019.720p.BRRip.x264.AC3-ETRG torrent

ETTV Recommended UHD
The.Silence.of.the.Lambs.1991.2160p.UHDRip.x265.HDR.DTS-HD.MA.5.1-DTOne torrent
Robin.Hood.2018.UHD.BluRay.2160p.x265.Atmos.7.1-DTOne torrent
Big Pacific Season One 2018.2160p.UHD.BluRay.x265.SDR.FLAC.2.0-DTOne torrent
Close.Encounters.of.the.Third.Kind.1977.DC.4K.HDR.2160p.BDRip Ita Eng x265-NAHOM torrent

ETTV Recommended Cam
The Lego Movie 2 2019 HDCAM XViD AC3-ETRG torrent
How to Train Your Dragon 3 2018 NEW 720p HDCAM-1XBET torrent
Happy Death Day 2U.2019.HDCAM.XViD.AC3-ETRG torrent
What Men Want 2019 HDCAM x264 AC3 MP4KiNG torrent

ETTV Recommended Foreign
Robin.Hood.2018.Multi..BluRay.1080p.HEVC.Atmos.7.1-DTOne torrent
T-34 2018 1080p WEB-DL MPA2.0 H.264[EtHD] torrent
Awe! (2018) 720p UNCUT HDRip x264 Eng Subs [Dual Audio] [Hindi DD 2.0 - Telugu 5.1] Exclusive By -=!Dr.STAR!=- torrent
Taxiwala.2018.1080p.WebDL.AVC.AAC.ESub.DTOne torrent


Download Torrent "Incredible Hulk 2008 Complete 1080p Bluray BDrip 5.1 DTS-HD MA D0ct0rLew[UT..."

IMDB Details
Description:

N/A

Genre:

N/A

Download Torrent (Magnet)
Download Torrent (File)
Seeds: 4
Leechers: 20
Completed: 94 
Last Checked: 26-09-2018 21:17:39


Details
Title:Incredible Hulk 2008 Complete 1080p Bluray BDrip 5.1 DTS-HD MA D0ct0rLew[UT...
Description:





Screenshots





Source


Encode



Media Information

Unique ID                                : 250851393667976004855239916003811748514 (0xBCB83897C209145888C4E091A89D6AA2)
Complete name                            : Incredible Hulk 2008 1080p Bluray BDrip 5.1 DTS-HD MA D0ct0rLew[UTR-HD].mkv
Format                                   : Matroska
Format version                           : Version 4 / Version 2
File size                                : 8.96 GiB
Duration                                 : 1 h 52 min
Overall bit rate                         : 11.4 Mb/s
Movie name                               : Incredible_Hulk_t00 vid and main audio (1)
Encoded date                             : UTC 2018-09-11 13:33:38
Writing application                      : mkvmerge v17.0.0 ('Be Ur Friend') 64-bit
Writing library                          : libebml v1.3.5 + libmatroska v1.4.8

Video
ID                                       : 3
Format                                   : HEVC
Format/Info                              : High Efficiency Video Coding
Format profile                           : Main [email protected]@Main
Codec ID                                 : V_MPEGH/ISO/HEVC
Duration                                 : 1 h 52 min
Bit rate                                 : 6 407 kb/s
Width                                    : 1 920 pixels
Height                                   : 1 080 pixels
Display aspect ratio                     : 16:9
Frame rate mode                          : Constant
Frame rate                               : 23.976 (24000/1001) FPS
Color space                              : YUV
Chroma subsampling                       : 4:2:0
Bit depth                                : 10 bits
Bits/(Pixel*Frame)                       : 0.129
Stream size                              : 5.02 GiB (56%)
Writing library                          : x265 2.8+66-88ee12651e30:[Windows][GCC 8.2.0][64 bit] 10bit
Encoding settings                        : cpuid=1049583 / frame-threads=3 / numa-pools=8 / wpp / no-pmode / no-pme / no-psnr / no-ssim / log-level=2 / input-csp=1 / input-res=1920x1080 / interlace=0 / total-frames=161455 / level-idc=0 / high-tier=1 / uhd-bd=0 / ref=5 / no-allow-non-conformance / no-repeat-headers / annexb / no-aud / no-hrd / info / hash=0 / no-temporal-layers / open-gop / min-keyint=24 / keyint=240 / gop-lookahead=0 / bframes=8 / b-adapt=2 / b-pyramid / bframe-bias=0 / rc-lookahead=90 / lookahead-slices=0 / scenecut=40 / radl=0 / no-intra-refresh / ctu=64 / min-cu-size=8 / rect / amp / max-tu-size=32 / tu-inter-depth=3 / tu-intra-depth=3 / limit-tu=4 / rdoq-level=2 / dynamic-rd=0.00 / no-ssim-rd / signhide / no-tskip / nr-intra=0 / nr-inter=0 / no-constrained-intra / no-strong-intra-smoothing / max-merge=4 / limit-refs=1 / limit-modes / me=3 / subme=4 / merange=92 / temporal-mvp / weightp / weightb / no-analyze-src-pics / deblock=3:3 / sao / no-sao-non-deblock / rd=6 / no-early-skip / rskip / no-fast-intra / no-tskip-fast / no-cu-lossless / b-intra / no-splitrd-skip / rdpenalty=0 / psy-rd=1.10 / psy-rdoq=1.00 / no-rd-refine / no-lossless / cbqpoffs=0 / crqpoffs=0 / rc=crf / crf=18.3 / qcomp=0.50 / qpstep=4 / stats-write=0 / stats-read=0 / ipratio=1.40 / pbratio=1.30 / aq-mode=2 / aq-strength=1.10 / cutree / zone-count=0 / no-strict-cbr / qg-size=32 / no-rc-grain / qpmax=69 / qpmin=0 / no-const-vbv / sar=1 / overscan=0 / videoformat=5 / range=0 / colorprim=1 / transfer=1 / colormatrix=1 / chromaloc=0 / display-window=0 / max-cll=0,0 / min-luma=0 / max-luma=1023 / log2-max-poc-lsb=8 / vui-timing-info / vui-hrd-info / slices=1 / no-opt-qp-pps / no-opt-ref-list-length-pps / no-multi-pass-opt-rps / scenecut-bias=0.05 / no-opt-cu-delta-qp / no-aq-motion / no-hdr / no-hdr-opt / no-dhdr10-opt / no-idr-recovery-sei / analysis-reuse-level=5 / scale-factor=0 / refine-intra=0 / refine-inter=0 / refine-mv=0 / no-limit-sao / ctu-info=0 / no-lowpass-dct / refine-mv-type=0 / copy-pic=1 / max-ausize-factor=1.0 / no-dynamic-refine / no-single-sei
Default                                  : Yes
Forced                                   : No
Color range                              : Limited
Color primaries                          : BT.709
Transfer characteristics                 : BT.709
Matrix coefficients                      : BT.709

Audio #1
ID                                       : 4
Format                                   : DTS
Format/Info                              : Digital Theater Systems
Format profile                           : MA / Core
Mode                                     : 16
Format settings, Endianness              : Big
Codec ID                                 : A_DTS
Duration                                 : 1 h 52 min
Bit rate mode                            : Variable / Constant
Bit rate                                 : 4 447 kb/s / 1 509 kb/s
Channel(s)                               : 6 channels
Channel positions                        : Front: L C R, Side: L R, LFE
Sampling rate                            : 48.0 kHz
Frame rate                               : 93.750 FPS (512 spf)
Bit depth                                : 24 bits
Compression mode                         : Lossless / Lossy
Stream size                              : 3.49 GiB (39%)
Language                                 : English
Default                                  : Yes
Forced                                   : No

Audio #2
ID                                       : 5
Format                                   : AAC
Format/Info                              : Advanced Audio Codec
Format profile                           : LC
Codec ID                                 : A_AAC
Duration                                 : 1 h 52 min
Bit rate                                 : 128 kb/s
Channel(s)                               : 2 channels
Channel positions                        : Front: L R
Sampling rate                            : 48.0 kHz
Frame rate                               : 46.875 FPS (1024 spf)
Compression mode                         : Lossy
Delay relative to video                  : 9 ms
Stream size                              : 103 MiB (1%)
Title                                    : commentary
Language                                 : English
Default                                  : No
Forced                                   : No

Audio #3
ID                                       : 6
Format                                   : AAC
Format/Info                              : Advanced Audio Codec
Format profile                           : LC
Codec ID                                 : A_AAC
Duration                                 : 1 h 52 min
Bit rate                                 : 384 kb/s
Channel(s)                               : 6 channels
Channel positions                        : Front: L C R, Side: L R, LFE
Sampling rate                            : 48.0 kHz
Frame rate                               : 46.875 FPS (1024 spf)
Compression mode                         : Lossy
Delay relative to video                  : 9 ms
Stream size                              : 308 MiB (3%)
Language                                 : Italian
Default                                  : No
Forced                                   : No

Text #1
ID                                       : 1
Format                                   : UTF-8
Codec ID                                 : S_TEXT/UTF8
Codec ID/Info                            : UTF-8 Plain Text
Duration                                 : 1 h 44 min
Bit rate                                 : 33 b/s
Count of elements                        : 835
Stream size                              : 25.4 KiB (0%)
Language                                 : English
Default                                  : Yes
Forced                                   : No

Text #2
ID                                       : 2
Format                                   : UTF-8
Codec ID                                 : S_TEXT/UTF8
Codec ID/Info                            : UTF-8 Plain Text
Duration                                 : 1 h 51 min
Bit rate                                 : 126 b/s
Count of elements                        : 2107
Stream size                              : 103 KiB (0%)
Title                                    : commentary
Language                                 : English
Default                                  : No
Forced                                   : No

Text #3
ID                                       : 7
Format                                   : VobSub
Muxing mode                              : zlib
Codec ID                                 : S_VOBSUB
Codec ID/Info                            : Picture based subtitle format used on DVDs
Duration                                 : 1 h 38 min
Bit rate                                 : 1 434 b/s
Count of elements                        : 506
Stream size                              : 1.01 MiB (0%)
Language                                 : Korean
Default                                  : No
Forced                                   : No

Text #4
ID                                       : 8
Format                                   : VobSub
Muxing mode                              : zlib
Codec ID                                 : S_VOBSUB
Codec ID/Info                            : Picture based subtitle format used on DVDs
Duration                                 : 1 h 38 min
Bit rate                                 : 1 638 b/s
Count of elements                        : 501
Stream size                              : 1.16 MiB (0%)
Language                                 : Swedish
Default                                  : No
Forced                                   : No

Text #5
ID                                       : 9
Format                                   : VobSub
Muxing mode                              : zlib
Codec ID                                 : S_VOBSUB
Codec ID/Info                            : Picture based subtitle format used on DVDs
Duration                                 : 1 h 38 min
Bit rate                                 : 1 671 b/s
Count of elements                        : 499
Stream size                              : 1.18 MiB (0%)
Language                                 : Danish
Default                                  : No
Forced                                   : No

Text #6
ID                                       : 10
Format                                   : VobSub
Muxing mode                              : zlib
Codec ID                                 : S_VOBSUB
Codec ID/Info                            : Picture based subtitle format used on DVDs
Duration                                 : 1 h 38 min
Bit rate                                 : 1 682 b/s
Count of elements                        : 501
Stream size                              : 1.19 MiB (0%)
Language                                 : Finnish
Default                                  : No
Forced                                   : No

Text #7
ID                                       : 11
Format                                   : VobSub
Muxing mode                              : zlib
Codec ID                                 : S_VOBSUB
Codec ID/Info                            : Picture based subtitle format used on DVDs
Duration                                 : 1 h 38 min
Bit rate                                 : 1 644 b/s
Count of elements                        : 501
Stream size                              : 1.16 MiB (0%)
Language                                 : Norwegian
Default                                  : No
Forced                                   : No

Text #8
ID                                       : 12
Format                                   : VobSub
Muxing mode                              : zlib
Codec ID                                 : S_VOBSUB
Codec ID/Info                            : Picture based subtitle format used on DVDs
Duration                                 : 1 h 38 min
Bit rate                                 : 1 785 b/s
Count of elements                        : 501
Stream size                              : 1.26 MiB (0%)
Language                                 : Portuguese
Default                                  : No
Forced                                   : No

Text #9
ID                                       : 13
Format                                   : VobSub
Muxing mode                              : zlib
Codec ID                                 : S_VOBSUB
Codec ID/Info                            : Picture based subtitle format used on DVDs
Duration                                 : 1 h 43 min
Bit rate                                 : 2 083 b/s
Count of elements                        : 792
Stream size                              : 1.54 MiB (0%)
Language                                 : Italian
Default                                  : No
Forced                                   : No

Text #10
ID                                       : 14
Format                                   : VobSub
Muxing mode                              : zlib
Codec ID                                 : S_VOBSUB
Codec ID/Info                            : Picture based subtitle format used on DVDs
Duration                                 : 1 h 43 min
Bit rate                                 : 1 388 b/s
Count of elements                        : 641
Stream size                              : 1.03 MiB (0%)
Language                                 : Dutch
Default                                  : No
Forced                                   : No

Text #11
ID                                       : 15
Format                                   : VobSub
Muxing mode                              : zlib
Codec ID                                 : S_VOBSUB
Codec ID/Info                            : Picture based subtitle format used on DVDs
Duration                                 : 1 h 44 min
Bit rate                                 : 1 707 b/s
Count of elements                        : 799
Stream size                              : 1.28 MiB (0%)
Language                                 : Korean
Default                                  : No
Forced                                   : No

Text #12
ID                                       : 16
Format                                   : VobSub
Muxing mode                              : zlib
Codec ID                                 : S_VOBSUB
Codec ID/Info                            : Picture based subtitle format used on DVDs
Duration                                 : 1 h 43 min
Bit rate                                 : 1 731 b/s
Count of elements                        : 731
Stream size                              : 1.28 MiB (0%)
Language                                 : Swedish
Default                                  : No
Forced                                   : No

Text #13
ID                                       : 17
Format                                   : VobSub
Muxing mode                              : zlib
Codec ID                                 : S_VOBSUB
Codec ID/Info                            : Picture based subtitle format used on DVDs
Duration                                 : 1 h 43 min
Bit rate                                 : 1 707 b/s
Count of elements                        : 692
Stream size                              : 1.26 MiB (0%)
Language                                 : Danish
Default                                  : No
Forced                                   : No

Text #14
ID                                       : 18
Format                                   : VobSub
Muxing mode                              : zlib
Codec ID                                 : S_VOBSUB
Codec ID/Info                            : Picture based subtitle format used on DVDs
Duration                                 : 1 h 44 min
Bit rate                                 : 1 525 b/s
Count of elements                        : 681
Stream size                              : 1.14 MiB (0%)
Language                                 : Finnish
Default                                  : No
Forced                                   : No

Text #15
ID                                       : 19
Format                                   : VobSub
Muxing mode                              : zlib
Codec ID                                 : S_VOBSUB
Codec ID/Info                            : Picture based subtitle format used on DVDs
Duration                                 : 1 h 43 min
Bit rate                                 : 2 046 b/s
Count of elements                        : 791
Stream size                              : 1.52 MiB (0%)
Language                                 : Norwegian
Default                                  : No
Forced                                   : No

Text #16
ID                                       : 20
Format                                   : VobSub
Muxing mode                              : zlib
Codec ID                                 : S_VOBSUB
Codec ID/Info                            : Picture based subtitle format used on DVDs
Duration                                 : 1 h 44 min
Bit rate                                 : 1 765 b/s
Count of elements                        : 705
Stream size                              : 1.32 MiB (0%)
Language                                 : Portuguese
Default                                  : No
Forced                                   : No

Text #17
ID                                       : 21
Format                                   : VobSub
Muxing mode                              : zlib
Codec ID                                 : S_VOBSUB
Codec ID/Info                            : Picture based subtitle format used on DVDs
Duration                                 : 1 h 44 min
Bit rate                                 : 1 340 b/s
Count of elements                        : 760
Stream size                              : 1 023 KiB (0%)
Language                                 : Chinese
Default                                  : No
Forced                                   : No

Text #18
ID                                       : 22
Format                                   : VobSub
Muxing mode                              : zlib
Codec ID                                 : S_VOBSUB
Codec ID/Info                            : Picture based subtitle format used on DVDs
Duration                                 : 1 h 51 min
Bit rate                                 : 6 238 b/s
Count of elements                        : 2121
Stream size                              : 4.97 MiB (0%)
Language                                 : Italian
Default                                  : No
Forced                                   : No

Text #19
ID                                       : 23
Format                                   : VobSub
Muxing mode                              : zlib
Codec ID                                 : S_VOBSUB
Codec ID/Info                            : Picture based subtitle format used on DVDs
Duration                                 : 1 h 51 min
Bit rate                                 : 6 702 b/s
Count of elements                        : 2117
Stream size                              : 5.34 MiB (0%)
Language                                 : Dutch
Default                                  : No
Forced                                   : No

Text #20
ID                                       : 24
Format                                   : VobSub
Muxing mode                              : zlib
Codec ID                                 : S_VOBSUB
Codec ID/Info                            : Picture based subtitle format used on DVDs
Duration                                 : 1 h 51 min
Bit rate                                 : 5 862 b/s
Count of elements                        : 2121
Stream size                              : 4.67 MiB (0%)
Language                                 : Korean
Default                                  : No
Forced                                   : No

Text #21
ID                                       : 25
Format                                   : VobSub
Muxing mode                              : zlib
Codec ID                                 : S_VOBSUB
Codec ID/Info                            : Picture based subtitle format used on DVDs
Duration                                 : 1 h 51 min
Bit rate                                 : 6 264 b/s
Count of elements                        : 2121
Stream size                              : 4.99 MiB (0%)
Language                                 : Swedish
Default                                  : No
Forced                                   : No

Text #22
ID                                       : 26
Format                                   : VobSub
Muxing mode                              : zlib
Codec ID                                 : S_VOBSUB
Codec ID/Info                            : Picture based subtitle format used on DVDs
Duration                                 : 1 h 51 min
Bit rate                                 : 6 647 b/s
Count of elements                        : 2120
Stream size                              : 5.29 MiB (0%)
Language                                 : Danish
Default                                  : No
Forced                                   : No

Text #23
ID                                       : 27
Format                                   : VobSub
Muxing mode                              : zlib
Codec ID                                 : S_VOBSUB
Codec ID/Info                            : Picture based subtitle format used on DVDs
Duration                                 : 1 h 51 min
Bit rate                                 : 6 195 b/s
Count of elements                        : 2119
Stream size                              : 4.93 MiB (0%)
Language                                 : Finnish
Default                                  : No
Forced                                   : No

Text #24
ID                                       : 28
Format                                   : VobSub
Muxing mode                              : zlib
Codec ID                                 : S_VOBSUB
Codec ID/Info                            : Picture based subtitle format used on DVDs
Duration                                 : 1 h 51 min
Bit rate                                 : 6 165 b/s
Count of elements                        : 2121
Stream size                              : 4.91 MiB (0%)
Language                                 : Norwegian
Default                                  : No
Forced                                   : No

Text #25
ID                                       : 29
Format                                   : VobSub
Muxing mode                              : zlib
Codec ID                                 : S_VOBSUB
Codec ID/Info                            : Picture based subtitle format used on DVDs
Duration                                 : 1 h 51 min
Bit rate                                 : 6 706 b/s
Count of elements                        : 2119
Stream size                              : 5.34 MiB (0%)
Language                                 : Portuguese
Default                                  : No
Forced                                   : No

Text #26
ID                                       : 30
Format                                   : VobSub
Muxing mode                              : zlib
Codec ID                                 : S_VOBSUB
Codec ID/Info                            : Picture based subtitle format used on DVDs
Duration                                 : 1 h 42 min
Bit rate                                 : 223 b/s
Count of elements                        : 88
Stream size                              : 168 KiB (0%)
Language                                 : Italian
Default                                  : No
Forced                                   : No

Text #27
ID                                       : 31
Format                                   : VobSub
Muxing mode                              : zlib
Codec ID                                 : S_VOBSUB
Codec ID/Info                            : Picture based subtitle format used on DVDs
Duration                                 : 1 h 38 min
Bit rate                                 : 1 848 b/s
Count of elements                        : 501
Stream size                              : 1.31 MiB (0%)
Language                                 : Italian
Default                                  : No
Forced                                   : No

Text #28
ID                                       : 32
Format                                   : VobSub
Muxing mode                              : zlib
Codec ID                                 : S_VOBSUB
Codec ID/Info                            : Picture based subtitle format used on DVDs
Duration                                 : 1 h 38 min
Bit rate                                 : 1 592 b/s
Count of elements                        : 502
Stream size                              : 1.13 MiB (0%)
Language                                 : Dutch
Default                                  : No
Forced                                   : No

Menu
00:00:00.000                             : en:Chapter 01
00:05:49.640                             : en:Chapter 02
00:12:52.313                             : en:Chapter 03
00:16:10.761                             : en:Chapter 04
00:21:17.025                             : en:Chapter 05
00:26:27.794                             : en:Chapter 06
00:30:42.882                             : en:Chapter 07
00:34:11.549                             : en:Chapter 08
00:40:22.169                             : en:Chapter 09
00:47:33.308                             : en:Chapter 10
00:55:57.187                             : en:Chapter 11
01:02:27.452                             : en:Chapter 12
01:07:56.781                             : en:Chapter 13
01:12:20.919                             : en:Chapter 14
01:19:53.079                             : en:Chapter 15
01:24:03.038                             : en:Chapter 16
01:30:27.547                             : en:Chapter 17
01:37:03.984                             : en:Chapter 18
01:42:41.113                             : en:Chapter 19
01:45:35.162                             : en:Chapter 20

Source Media Information

Unique ID                                : 266495564910130469273636072127743520911 (0xC87D2DC92882DE83DA2C5988B871F08F)
Complete name                            : Incredible_Hulk remuxed\Incredible_Hulk_t00.mkv
Format                                   : Matroska
Format version                           : Version 2
File size                                : 19.7 GiB
Duration                                 : 1 h 52 min
Overall bit rate mode                    : Variable
Overall bit rate                         : 25.1 Mb/s
Movie name                               : Incredible Hulk
Encoded date                             : UTC 2018-08-29 11:53:44
Writing application                      : MakeMKV v1.12.3 win(x64-release)
Writing library                          : libmakemkv v1.12.3 (1.3.5/1.4.7) win(x64-release)
Original source medium                   : Blu-ray

Video
ID                                       : 1
ID in the original source medium         : 4113 (0x1011)
Format                                   : AVC
Format/Info                              : Advanced Video Codec
Format profile                           : [email protected]
Format settings, CABAC                   : Yes
Format settings, ReFrames                : 4 frames
Codec ID                                 : V_MPEG4/ISO/AVC
Duration                                 : 1 h 52 min
Bit rate mode                            : Variable
Bit rate                                 : 18.6 Mb/s
Maximum bit rate                         : 33.7 Mb/s
Width                                    : 1 920 pixels
Height                                   : 1 080 pixels
Display aspect ratio                     : 16:9
Frame rate mode                          : Constant
Frame rate                               : 23.976 (24000/1001) FPS
Color space                              : YUV
Chroma subsampling                       : 4:2:0
Bit depth                                : 8 bits
Scan type                                : Progressive
Bits/(Pixel*Frame)                       : 0.374
Stream size                              : 14.6 GiB (74%)
Language                                 : English
Default                                  : No
Forced                                   : No
Color range                              : Limited
Color primaries                          : BT.709
Transfer characteristics                 : BT.709
Matrix coefficients                      : BT.709

Audio #1
ID                                       : 2
ID in the original source medium         : 4352 (0x1100)
Format                                   : DTS
Format/Info                              : Digital Theater Systems
Format profile                           : MA / Core
Mode                                     : 16
Format settings, Endianness              : Big
Codec ID                                 : A_DTS
Duration                                 : 1 h 52 min
Bit rate mode                            : Variable / Constant
Bit rate                                 : 4 447 kb/s / 1 509 kb/s
Channel(s)                               : 6 channels
Channel positions                        : Front: L C R, Side: L R, LFE
Sampling rate                            : 48.0 kHz
Frame rate                               : 93.750 FPS (512 spf)
Bit depth                                : 24 bits
Compression mode                         : Lossless / Lossy
Stream size                              : 3.49 GiB (18%)
Title                                    : Surround 5.1
Language                                 : English
Default                                  : Yes
Forced                                   : No

Audio #2
ID                                       : 3
ID in the original source medium         : 4353 (0x1101)
Format                                   : AC-3
Format/Info                              : Audio Coding 3
Mode                                     : Dolby Digital
Format settings, Endianness              : Big
Codec ID                                 : A_AC3
Duration                                 : 1 h 52 min
Bit rate mode                            : Constant
Bit rate                                 : 192 kb/s
Channel(s)                               : 2 channels
Channel positions                        : Front: L R
Sampling rate                            : 48.0 kHz
Frame rate                               : 31.250 FPS (1536 spf)
Bit depth                                : 16 bits
Compression mode                         : Lossy
Stream size                              : 154 MiB (1%)
Title                                    : Stereo
Language                                 : English
Service kind                             : Complete Main
Default                                  : No
Forced                                   : No

Audio #3
ID                                       : 4
ID in the original source medium         : 4354 (0x1102)
Format                                   : DTS
Format/Info                              : Digital Theater Systems
Mode                                     : 16
Format settings, Endianness              : Big
Codec ID                                 : A_DTS
Duration                                 : 1 h 52 min
Bit rate mode                            : Constant
Bit rate                                 : 768 kb/s
Channel(s)                               : 6 channels
Channel positions                        : Front: L C R, Side: L R, LFE
Sampling rate                            : 48.0 kHz
Frame rate                               : 93.750 FPS (512 spf)
Bit depth                                : 24 bits
Compression mode                         : Lossy
Stream size                              : 617 MiB (3%)
Title                                    : Surround 5.1
Language                                 : Italian
Default                                  : No
Forced                                   : No

Audio #4
ID                                       : 5
ID in the original source medium         : 4355 (0x1103)
Format                                   : AC-3
Format/Info                              : Audio Coding 3
Mode                                     : Dolby Digital
Format settings, Endianness              : Big
Codec ID                                 : A_AC3
Duration                                 : 1 h 52 min
Bit rate mode                            : Constant
Bit rate                                 : 192 kb/s
Channel(s)                               : 2 channels
Channel positions                        : Front: L R
Sampling rate                            : 48.0 kHz
Frame rate                               : 31.250 FPS (1536 spf)
Bit depth                                : 16 bits
Compression mode                         : Lossy
Stream size                              : 154 MiB (1%)
Title                                    : Stereo
Language                                 : English
Service kind                             : Complete Main
Default                                  : No
Forced                                   : No

Text #1
ID                                       : 6
ID in the original source medium         : 4608 (0x1200)
Format                                   : PGS
Codec ID                                 : S_HDMV/PGS
Codec ID/Info                            : Picture based subtitle format used on BDs/HD-DVDs
Duration                                 : 1 h 44 min
Bit rate                                 : 22.0 kb/s
Count of elements                        : 1667
Stream size                              : 16.4 MiB (0%)
Language                                 : English
Default                                  : No
Forced                                   : No

Text #2
ID                                       : 8
ID in the original source medium         : 4609 (0x1201)
Format                                   : PGS
Codec ID                                 : S_HDMV/PGS
Codec ID/Info                            : Picture based subtitle format used on BDs/HD-DVDs
Duration                                 : 1 h 43 min
Bit rate                                 : 20.6 kb/s
Count of elements                        : 1581
Stream size                              : 15.2 MiB (0%)
Language                                 : Italian
Default                                  : No
Forced                                   : No

Text #3
ID                                       : 10
ID in the original source medium         : 4610 (0x1202)
Format                                   : PGS
Codec ID                                 : S_HDMV/PGS
Codec ID/Info                            : Picture based subtitle format used on BDs/HD-DVDs
Duration                                 : 1 h 43 min
Bit rate                                 : 13.7 kb/s
Count of elements                        : 1280
Stream size                              : 10.1 MiB (0%)
Language                                 : Dutch
Default                                  : No
Forced                                   : No

Text #4
ID                                       : 12
ID in the original source medium         : 4611 (0x1203)
Format                                   : PGS
Codec ID                                 : S_HDMV/PGS
Codec ID/Info                            : Picture based subtitle format used on BDs/HD-DVDs
Duration                                 : 1 h 44 min
Bit rate                                 : 14.9 kb/s
Count of elements                        : 1595
Stream size                              : 11.2 MiB (0%)
Language                                 : Korean
Default                                  : No
Forced                                   : No

Text #5
ID                                       : 14
ID in the original source medium         : 4612 (0x1204)
Format                                   : PGS
Codec ID                                 : S_HDMV/PGS
Codec ID/Info                            : Picture based subtitle format used on BDs/HD-DVDs
Duration                                 : 1 h 43 min
Bit rate                                 : 17.1 kb/s
Count of elements                        : 1459
Stream size                              : 12.6 MiB (0%)
Language                                 : Swedish
Default                                  : No
Forced                                   : No

Text #6
ID                                       : 16
ID in the original source medium         : 4613 (0x1205)
Format                                   : PGS
Codec ID                                 : S_HDMV/PGS
Codec ID/Info                            : Picture based subtitle format used on BDs/HD-DVDs
Duration                                 : 1 h 43 min
Bit rate                                 : 16.8 kb/s
Count of elements                        : 1381
Stream size                              : 12.4 MiB (0%)
Language                                 : Danish
Default                                  : No
Forced                                   : No

Text #7
ID                                       : 18
ID in the original source medium         : 4614 (0x1206)
Format                                   : PGS
Codec ID                                 : S_HDMV/PGS
Codec ID/Info                            : Picture based subtitle format used on BDs/HD-DVDs
Duration                                 : 1 h 44 min
Bit rate                                 : 15.1 kb/s
Count of elements                        : 1359
Stream size                              : 11.3 MiB (0%)
Language                                 : Finnish
Default                                  : No
Forced                                   : No

Text #8
ID                                       : 20
ID in the original source medium         : 4615 (0x1207)
Format                                   : PGS
Codec ID                                 : S_HDMV/PGS
Codec ID/Info                            : Picture based subtitle format used on BDs/HD-DVDs
Duration                                 : 1 h 43 min
Bit rate                                 : 20.0 kb/s
Count of elements                        : 1579
Stream size                              : 14.8 MiB (0%)
Language                                 : Norwegian
Default                                  : No
Forced                                   : No

Text #9
ID                                       : 22
ID in the original source medium         : 4616 (0x1208)
Format                                   : PGS
Codec ID                                 : S_HDMV/PGS
Codec ID/Info                            : Picture based subtitle format used on BDs/HD-DVDs
Duration                                 : 1 h 44 min
Bit rate                                 : 17.7 kb/s
Count of elements                        : 1407
Stream size                              : 13.2 MiB (0%)
Language                                 : Portuguese
Default                                  : No
Forced                                   : No

Text #10
ID                                       : 24
ID in the original source medium         : 4617 (0x1209)
Format                                   : PGS
Codec ID                                 : S_HDMV/PGS
Codec ID/Info                            : Picture based subtitle format used on BDs/HD-DVDs
Duration                                 : 1 h 44 min
Bit rate                                 : 14.1 kb/s
Count of elements                        : 1517
Stream size                              : 10.5 MiB (0%)
Language                                 : Chinese
Default                                  : No
Forced                                   : No

Text #11
ID                                       : 26
ID in the original source medium         : 4618 (0x120A)
Format                                   : PGS
Codec ID                                 : S_HDMV/PGS
Codec ID/Info                            : Picture based subtitle format used on BDs/HD-DVDs
Duration                                 : 1 h 51 min
Bit rate                                 : 82.5 kb/s
Count of elements                        : 4226
Stream size                              : 65.7 MiB (0%)
Language                                 : English
Default                                  : No
Forced                                   : No

Text #12
ID                                       : 28
ID in the original source medium         : 4619 (0x120B)
Format                                   : PGS
Codec ID                                 : S_HDMV/PGS
Codec ID/Info                            : Picture based subtitle format used on BDs/HD-DVDs
Duration                                 : 1 h 51 min
Bit rate                                 : 65.8 kb/s
Count of elements                        : 4224
Stream size                              : 52.4 MiB (0%)
Language                                 : Italian
Default                                  : No
Forced                              
Category:Movies > HEVC/x265
Lang:English  English
Total Size:13.59 GB
Info Hash:d69ad3cf06919923645e0bb96f0a45f0af9ec3e5
Added By:UTRHD
Date Added:26-09-2018 21:17:34

Files

File List: 
 File Size
Extras/Alternate Opening BDRip 1080p x265 5.1 AAC D0ct0rLew[UTR-HD].mkv96 MB
Extras/Anatomy of a Hulk-Out BDRip 1080p x265 2.0 AAC D0ct0rLew[UTR-HD].mkv1.73 GB
Extras/Becoming the Abomination BDRip 1080p x265 2.0 AAC D0ct0rLew[UTR-HD].mkv489 MB
Extras/Becoming the Hulk BDRip 1080p x265 2.0 AAC D0ct0rLew[UTR-HD].mkv511 MB
Extras/Deleted scenes(1) BDRip 480p x265 2.0 AAC D0ct0rLew[UTR-HD].mkv39 MB
Extras/Deleted scenes(2) BDRip 480p x265 2.0 AAC D0ct0rLew[UTR-HD].mkv226 MB
Extras/From Comic Book to Screen BDRip 1080p x265 5.1 AAC D0ct0rLew[UTR-HD].mkv197 MB
Extras/Making Of The Incredible Hulk BDRip 1080p x265 5.1 AAC D0ct0rLew[UTR-HD].mkv1.38 GB
Incredible Hulk 2008 1080p Bluray BDrip 5.1 DTS-HD MA D0ct0rLew[UTR-HD].mkv8.96 GB



Comments

There are currently no comments. Be the first one to write something !