kgf sarkar Manikarnika star trek discovery thakrey Xxx kedarnath thackeray malayalam the accidental prime minister supernatural evo aquaman telugu odiyan the flash why cheat india great british bake off s09e10 vikings tushy 18.12 1080p.mp4-ktr charlie chaplin 2 1080P Hindi mirzapur ettv mr majnu the grand tour 2018 ita Adanga Maru Tin Star etmovies dtone uri EVO malayalam 2018 movies AQUAMAN ita Bumblebee ethd ITA zero etrg venom f2 1080p 2018 maari 2 Game Of Thrones viswasam TamilRockers Kannada simmba Kannada ddr simbha tushyraw 1080p.mp4-ktr mortal engines simba petta DTOne uri the surgical strike kung fu the legend Young justice tamil robot 2.0 it brazzers it 2017 2.0 thakre Njan Prakashan glass fgt bohemian rhapsody Star Trek Discovery S02E02 
Warning! Use a VPN When Downloading Torrents!
Your IP Address is 54.197.24.206. Location is United States
Your Internet Provider is tracking your torrent activity! Hide your IP ADDRESS with a VPN!
We strongly recommend using ExpressVPN to anonymize your torrenting. 30 Day Money Back Guarantee!
Try it Now!
ETTV Recommended TV Shows
The.Passage.S01E06.WEB.x264-TBS[ettv] torrent
The.Good.Doctor.S02E15.HDTV.x264-KILLERS[ettv] torrent
I.Am.the.Night.S01E04.WEBRip.x264-TBS[ettv] torrent
Magnum.P.I.2018.S01E15.HDTV.x264-SVA[ettv] torrent
Manifest.S01E16.HDTV.x264-KILLERS[ettv] torrent
American.Dad.S14E15.WEBRip.x264-TBS[ettv] torrent

ETTV Recommended SD
Mary.Queen.of.Scots.2018.BRRip.XViD.AC3-ETRG torrent
The.Possession.of.Hannah.Grace.2018.BRRip.XViD-ETRG torrent
Nightshooters 2018.BRRip.XViD-ETRG torrent
Serenity.2019.BRRip.XViD-ETRG torrent

ETTV Recommended HD
The.Appearance.2018.BluRay.1080p.HEVC.DTS-HD.MA5.1-DTOne torrent
You Might Be The Killer 2018.1080p.Blu-ray.HEVC.DTS-HDMA.5.1-DTOne torrent
Nightshooters.2018.1080p.Blu-ray.1080p.HEVC.DTS-HDMA.5.1-DTOne torrent
Serenity.2019.720p.BRRip.x264.AC3-ETRG torrent

ETTV Recommended UHD
The.Silence.of.the.Lambs.1991.2160p.UHDRip.x265.HDR.DTS-HD.MA.5.1-DTOne torrent
Robin.Hood.2018.UHD.BluRay.2160p.x265.Atmos.7.1-DTOne torrent
Big Pacific Season One 2018.2160p.UHD.BluRay.x265.SDR.FLAC.2.0-DTOne torrent
Close.Encounters.of.the.Third.Kind.1977.DC.4K.HDR.2160p.BDRip Ita Eng x265-NAHOM torrent

ETTV Recommended Cam
The Lego Movie 2 2019 HDCAM XViD AC3-ETRG torrent
How to Train Your Dragon 3 2018 NEW 720p HDCAM-1XBET torrent
Happy Death Day 2U.2019.HDCAM.XViD.AC3-ETRG torrent
What Men Want 2019 HDCAM x264 AC3 MP4KiNG torrent

ETTV Recommended Foreign
Robin.Hood.2018.Multi..BluRay.1080p.HEVC.Atmos.7.1-DTOne torrent
T-34 2018 1080p WEB-DL MPA2.0 H.264[EtHD] torrent
Awe! (2018) 720p UNCUT HDRip x264 Eng Subs [Dual Audio] [Hindi DD 2.0 - Telugu 5.1] Exclusive By -=!Dr.STAR!=- torrent
Taxiwala.2018.1080p.WebDL.AVC.AAC.ESub.DTOne torrent


Download Torrent "What's Eating Gilbert Grape (1993) 1080p Blu-ray x265 AAC 5.1 D0ct0rLe..."

IMDB Details
Description:

N/A

Genre:

N/A

Download Torrent (Magnet)
Download Torrent (File)
Seeds: 50
Leechers: 80
Completed: 468 
Last Checked: 10-10-2018 04:14:23


Details
Title:What's Eating Gilbert Grape (1993) 1080p Blu-ray x265 AAC 5.1 D0ct0rLe...
Description:







Screenshots
Source



Encode


Media Information

Unique ID                                : 229240512687106741168869197396647555771 (0xAC761DE5A07B10FEBE3B5B17D39F32BB)
Complete name                            : What's Eating Gilbert Grape 1993 1080p Blu-ray x265 AAC 5.1 D0ct0rLew[UTR-HD].mkv
Format                                   : Matroska
Format version                           : Version 4
File size                                : 8.72 GiB
Duration                                 : 1 h 57 min
Overall bit rate                         : 10.6 Mb/s
Movie name                               : What's Eating Gilbert Grape 1993 1080p Blu-ray Remux AVC DTS-HD MA 5.1 - KRaLiMaRKo
Encoded date                             : UTC 2018-10-09 21:27:10
Writing application                      : mkvmerge v17.0.0 ('Be Ur Friend') 64-bit
Writing library                          : libebml v1.3.5 + libmatroska v1.4.8

Video
ID                                       : 3
Format                                   : HEVC
Format/Info                              : High Efficiency Video Coding
Format profile                           : Main [email protected]@Main
Codec ID                                 : V_MPEGH/ISO/HEVC
Duration                                 : 1 h 57 min
Bit rate                                 : 9 995 kb/s
Width                                    : 1 920 pixels
Height                                   : 1 080 pixels
Display aspect ratio                     : 16:9
Frame rate mode                          : Constant
Frame rate                               : 23.976 (24000/1001) FPS
Color space                              : YUV
Chroma subsampling                       : 4:2:0
Bit depth                                : 10 bits
Bits/(Pixel*Frame)                       : 0.201
Stream size                              : 8.24 GiB (94%)
Writing library                          : x265 2.8+69-856f056d392e:[Windows][MSVC 1915][64 bit] 10bit
Encoding settings                        : cpuid=1111039 / frame-threads=3 / numa-pools=8 / wpp / no-pmode / no-pme / no-psnr / no-ssim / log-level=2 / input-csp=1 / input-res=1920x1080 / interlace=0 / total-frames=169679 / level-idc=0 / high-tier=1 / uhd-bd=0 / ref=4 / no-allow-non-conformance / no-repeat-headers / annexb / no-aud / no-hrd / info / hash=0 / no-temporal-layers / open-gop / min-keyint=23 / keyint=250 / gop-lookahead=0 / bframes=8 / b-adapt=2 / b-pyramid / bframe-bias=0 / rc-lookahead=90 / lookahead-slices=4 / scenecut=40 / radl=0 / no-intra-refresh / ctu=64 / min-cu-size=8 / no-rect / no-amp / max-tu-size=32 / tu-inter-depth=2 / tu-intra-depth=2 / limit-tu=4 / rdoq-level=2 / dynamic-rd=0.00 / no-ssim-rd / signhide / no-tskip / nr-intra=0 / nr-inter=0 / no-constrained-intra / no-strong-intra-smoothing / max-merge=3 / limit-refs=2 / limit-modes / me=3 / subme=5 / merange=92 / temporal-mvp / weightp / weightb / no-analyze-src-pics / deblock=3:3 / no-sao / no-sao-non-deblock / rd=6 / no-early-skip / rskip / no-fast-intra / no-tskip-fast / no-cu-lossless / b-intra / no-splitrd-skip / rdpenalty=0 / psy-rd=1.10 / psy-rdoq=1.00 / no-rd-refine / no-lossless / cbqpoffs=0 / crqpoffs=0 / rc=abr / bitrate=9999 / qcomp=0.50 / qpstep=4 / stats-write=0 / stats-read=2 / cplxblur=20.0 / qblur=0.5 / ipratio=1.40 / pbratio=1.30 / aq-mode=2 / aq-strength=1.00 / cutree / zone-count=0 / no-strict-cbr / qg-size=32 / no-rc-grain / qpmax=69 / qpmin=0 / no-const-vbv / sar=0 / overscan=0 / videoformat=5 / range=0 / colorprim=2 / transfer=2 / colormatrix=2 / chromaloc=0 / display-window=0 / max-cll=0,0 / min-luma=0 / max-luma=1023 / log2-max-poc-lsb=8 / vui-timing-info / vui-hrd-info / slices=1 / no-opt-qp-pps / no-opt-ref-list-length-pps / no-multi-pass-opt-rps / scenecut-bias=0.05 / no-opt-cu-delta-qp / no-aq-motion / no-hdr / no-hdr-opt / no-dhdr10-opt / no-idr-recovery-sei / analysis-reuse-level=5 / scale-factor=0 / refine-intra=0 / refine-inter=0 / refine-mv=0 / no-limit-sao / ctu-info=0 / no-lowpass-dct / refine-mv-type=0 / copy-pic=1 / max-ausize-factor=1.0 / no-dynamic-refine / no-single-sei
Default                                  : Yes
Forced                                   : No

Audio
ID                                       : 2
Format                                   : AAC LC
Format/Info                              : Advanced Audio Codec Low Complexity
Codec ID                                 : A_AAC-2
Duration                                 : 1 h 57 min
Bit rate                                 : 576 kb/s
Channel(s)                               : 6 channels
Channel layout                           : C L R Ls Rs LFE
Sampling rate                            : 48.0 kHz
Frame rate                               : 46.875 FPS (1024 SPF)
Compression mode                         : Lossy
Delay relative to video                  : 9 ms
Stream size                              : 486 MiB (5%)
Language                                 : English
Default                                  : Yes
Forced                                   : No

Text #1
ID                                       : 1
Format                                   : UTF-8
Codec ID                                 : S_TEXT/UTF8
Codec ID/Info                            : UTF-8 Plain Text
Duration                                 : 1 h 54 min
Bit rate                                 : 56 b/s
Count of elements                        : 1380
Stream size                              : 47.1 KiB (0%)
Language                                 : English
Default                                  : Yes
Forced                                   : No

Text #2
ID                                       : 4
Format                                   : VobSub
Muxing mode                              : zlib
Codec ID                                 : S_VOBSUB
Codec ID/Info                            : Picture based subtitle format used on DVDs
Duration                                 : 1 h 57 min
Bit rate                                 : 7 670 b/s
Count of elements                        : 2436
Stream size                              : 6.44 MiB (0%)
Language                                 : German
Default                                  : No
Forced                                   : No

Menu
00:00:00.000                             : en:00:00:00.000
00:08:25.046                             : en:00:08:25.046
00:15:56.622                             : en:00:15:56.622
00:24:02.107                             : en:00:24:02.107
00:30:40.380                             : en:00:30:40.380
00:37:58.193                             : en:00:37:58.193
00:44:11.899                             : en:00:44:11.899
00:52:58.425                             : en:00:52:58.425
00:58:43.353                             : en:00:58:43.353
01:06:41.539                             : en:01:06:41.539
01:16:16.989                             : en:01:16:16.989
01:21:34.848                             : en:01:21:34.848
01:31:46.376                             : en:01:31:46.376
01:38:47.255                             : en:01:38:47.255
01:44:51.160                             : en:01:44:51.160
01:54:53.386                             : en:01:54:53.386

Source Media Information

Unique ID                                : 171493816989042644327884023975842236905 (0x810481FB5B451E62B2AA2B44DA3D49E9)
Complete name                            : What's Eating Gilbert Grape 1993 1080p Blu-ray Remux AVC DTS-HD MA 5.1 - KRaLiMaRKo.mkv
Format                                   : Matroska
Format version                           : Version 4
File size                                : 18.0 GiB
Duration                                 : 1 h 57 min
Overall bit rate mode                    : Variable
Overall bit rate                         : 21.8 Mb/s
Movie name                               : What's Eating Gilbert Grape 1993 1080p Blu-ray Remux AVC DTS-HD MA 5.1 - KRaLiMaRKo
Encoded date                             : UTC 2015-09-05 12:12:06
Writing application                      : mkvmerge v8.3.0 ('Over the Horizon') 64bit
Writing library                          : libebml v1.3.1 + libmatroska v1.4.2

Video
ID                                       : 1
Format                                   : AVC
Format/Info                              : Advanced Video Codec
Format profile                           : [email protected]
Format settings                          : CABAC / 4 Ref Frames
Format settings, CABAC                   : Yes
Format settings, RefFrames               : 4 frames
Codec ID                                 : V_MPEG4/ISO/AVC
Duration                                 : 1 h 57 min
Bit rate mode                            : Variable
Bit rate                                 : 19.9 Mb/s
Maximum bit rate                         : 30.0 Mb/s
Width                                    : 1 920 pixels
Height                                   : 1 080 pixels
Display aspect ratio                     : 16:9
Frame rate mode                          : Constant
Frame rate                               : 23.976 (24000/1001) FPS
Standard                                 : NTSC
Color space                              : YUV
Chroma subsampling                       : 4:2:0
Bit depth                                : 8 bits
Scan type                                : Progressive
Bits/(Pixel*Frame)                       : 0.401
Stream size                              : 16.4 GiB (91%)
Language                                 : English
Default                                  : Yes
Forced                                   : No
Color range                              : Limited
Color primaries                          : BT.709
Transfer characteristics                 : BT.709
Matrix coefficients                      : BT.709

Audio
ID                                       : 2
Format                                   : DTS XLL
Format/Info                              : Digital Theater Systems
Commercial name                          : DTS-HD Master Audio
Codec ID                                 : A_DTS
Duration                                 : 1 h 57 min
Bit rate mode                            : Variable
Bit rate                                 : 1 786 kb/s
Channel(s)                               : 6 channels
Channel layout                           : C L R Ls Rs LFE
Sampling rate                            : 48.0 kHz
Frame rate                               : 93.750 FPS (512 SPF)
Bit depth                                : 16 bits
Compression mode                         : Lossless
Stream size                              : 1.47 GiB (8%)
Language                                 : English
Default                                  : Yes
Forced                                   : No

Text
ID                                       : 3
Format                                   : PGS
Codec ID                                 : S_HDMV/PGS
Codec ID/Info                            : Picture based subtitle format used on BDs/HD-DVDs
Duration                                 : 1 h 57 min
Bit rate                                 : 89.4 kb/s
Count of elements                        : 3672
Stream size                              : 75.1 MiB (0%)
Language                                 : German
Default                                  : No
Forced                                   : No

Menu
00:00:00.000                             : en:00:00:00.000
00:08:25.046                             : en:00:08:25.046
00:15:56.622                             : en:00:15:56.622
00:24:02.107                             : en:00:24:02.107
00:30:40.380                             : en:00:30:40.380
00:37:58.193                             : en:00:37:58.193
00:44:11.899                             : en:00:44:11.899
00:52:58.425                             : en:00:52:58.425
00:58:43.353                             : en:00:58:43.353
01:06:41.539                             : en:01:06:41.539
01:16:16.989                             : en:01:16:16.989
01:21:34.848                             : en:01:21:34.848
01:31:46.376                             : en:01:31:46.376
01:38:47.255                             : en:01:38:47.255
01:44:51.160                             : en:01:44:51.160
01:54:53.386                             : en:01:54:53.386


We have no issue with individuals posting or re-uploading our torrents on a platform we aren't on. However, if this is something you'd like to do, please do so in a 'as-is' format. We ask that you do not create a new torrent, include all descriptions you see above including the UTR logo, tags, notes and screenshots. If you'd like to become a permanent poster on a website we don't post to, feel free to get in contact with a UniTeam member.

Category:Movies > HEVC/x265
Lang:English  English
Total Size:8.72 GB
Info Hash:b4d39f6cfc18702643fee7573189c80516e9917a
Added By:UTRHD
Date Added:10-10-2018 04:14:19

Files

File List: 
 File Size
What's Eating Gilbert Grape 1993 1080p Blu-ray x265 AAC 5.1 D0ct0rLew[UTR-HD].mkv8.72 GB



Comments

There are currently no comments. Be the first one to write something !