xxx tushyraw 1080p.mp4-ktr arrow robot 2.0 AQUAMAN ita star trek discovery español kedarnath Roma etrg Ita the gifted Star Trek Discovery manifest complete season dtone ethd tamil true detective s03e03 zero you Etrg simmba mirzapur 2160p Simba wwe fgt telugu bohemian rhapsody kgf 2018 ITA big bang theory español 2.0 a star is born The Favourite ddr mortal engines the flash petta aquaman Arrow S07E10 anal vikings tushy 18.12 1080p.mp4-ktr ncis great british bake off s09e10 etmovies mom glass fbi evo 1080P uri viswasam simbha ettv 0 supergirl TRUE DETECTIVE The Flash S05E11 game of thrones Bohemian Rhapsody ita flash The Rookie brazzers gotham Malayalam IT HINDI bumblebee 
Warning! Use a VPN When Downloading Torrents!
Your IP Address is 107.21.16.70. Location is United States
Your Internet Provider is tracking your torrent activity! Hide your IP ADDRESS with a VPN!
We strongly recommend using ExpressVPN to anonymize your torrenting. 30 Day Money Back Guarantee!
Try it Now!
ETTV Recommended TV Shows
Vikings.S05E19.HDTV.x264-LucidTV[ettv] torrent
Celebrity.Big.Brother.US.S02E03.HDTV.x264-[WRCR] torrent
The.Magicians.US.S04E01.WEB.x264-TBS[ettv] torrent
Deadly.Class.S01E02.HDTV.x264-BATV[ettv] torrent
Suits.S08E11.HDTV.x264-KILLERS[ettv] torrent
Greys.Anatomy.S15E10.HDTV.x264-CRAVERS[ettv] torrent

ETTV Recommended SD
Killer.High.2018.HDRip.XViD-ETRG torrent
If.Beale.Street.Could.Talk.2018.DVDScr.XVID.AC3.HQ.Hive-CM8 torrent
Can.You.Ever.Forgive.Me.2018.DVDScr.XVID.AC3.SHQ.Hive-CM8[EtMovies] torrent
Aquaman.2018.HC.HDRip.XViD.AC3-ETRG torrent

ETTV Recommended HD
Bohemian.Rhapsody.2018.1080p.WEB-DL.DD5.1.H264-CMRG[EtHD] torrent
King Of Thieves 2018.Blu-ray.1080p.HEVC.DTS-HDMA.5.1-DTOne torrent
Railroad Tigers 2016 Multi GBR Blu-ray 1080p HEVC DTS-X.7.1-DTOne torrent
Aquamen.2018.1080p.HC.HDRip.X264-EVO[EtHD] torrent

ETTV Recommended UHD
Hunter Killer 2018.UHD.BluRay.2160p.x265.Atmos.7.1-DTOne torrent
IMAX.Antartica on the edge 2011-2013.MULTi.2160p.BluRay.x265.SDR.DTS-HD.MA.5.1 torrent
The.Nutcracker.and.the.Four.Realms.2018.UHD.BluRay.2160p.x265.Atmos.7.1.-DTOne torrent
A Star Is Born 2018.UHD.2160p.UHDRip.x265.HDR.DD.5.1-DTOne torrent

ETTV Recommended Cam
Second Act 2018 HDCAM x264 AC3-ETRG torrent
City of Lies 2019 720p HDCAM HC ENG SUB-1XBET torrent
Creed 2 2018 HDTC x264 AC3-ETRG torrent
Glass 2018 720p HDCAM v2-1XBET torrent

ETTV Recommended Foreign
Big Brother 2018.CHI.BluRay.1080p.HEVC.TrueHD.5.1-DTOne torrent
Jatt vs. Ielts.2018.1080p.AMZN.WeB.DL.H264.DDP.2.0.DTOne torrent
Sanju 2018.Bluray.1080p.HEVC.DTS.5.1-DTOne torrent
Badhaai Ho 2018.Bluray.1080p.HEVC.DTS.5.1-DTOne torrent


Download Torrent "Satyameva Jayate (2018) Hindi 1080p WEB-RIP x264 AC3 DD5.1 - ESUB ~ Ranvija..."

IMDB Details
Description:

N/A

Genre:

N/A

Download Torrent (Magnet)
Download Torrent (File)
Seeds: 196
Leechers: 301
Completed: 777 
Last Checked: 19-10-2018 05:57:48


Loading...
Details
Title:Satyameva Jayate (2018) Hindi 1080p WEB-RIP x264 AC3 DD5.1 - ESUB ~ Ranvija...
Description:




Join My Facebook Group

Satyameva Jayate (2018) Hindi 1080p WEB-RIP x264 AC3 DD5.1 - ESUB ~ Ranvijay

Buy RDP Online



Source                                   : NbT
Format                                   : Matroska
Format version                           : Version 4 / Version 2
File size                                : 4.34 GiB
Duration                                 : 2 h 19 min
Overall bit rate                         : 4 449 kb/s
Movie name                               : Satyameva Jayate (2018) Hindi 1080p WEB-RIP x264 AC3 DD5.1 - ESUB ~ Ranvijay

Video
ID                                       : 1
Format                                   : AVC
Format/Info                              : Advanced Video Codec
Duration                                 : 2 h 19 min
Bit rate                                 : 4 000 kb/s
Width                                    : 1 920 pixels
Height                                   : 816 pixels
Display aspect ratio                     : 2.35:1
Frame rate mode                          : Constant
Frame rate                               : 24.000 FPS
Color space                              : YUV
Chroma subsampling                       : 4:2:0
Bit depth                                : 8 bits
Scan type                                : Progressive
Bits/(Pixel*Frame)                       : 0.106
Stream size                              : 3.90 GiB (90%)
Title                                    : ~Ranvijay~

Audio
ID                                       : 2
Format                                   : AC-3
Format/Info                              : Audio Coding 3
Codec ID                                 : A_AC3
Duration                                 : 2 h 19 min
Bit rate mode                            : Constant
Bit rate                                 : 448 kb/s
Channel(s)                               : 6 channels
Channel positions                        : Front: L C R, Side: L R, LFE
Sampling rate                            : 48.0 kHz
Frame rate                               : 31.250 FPS (1536 SPF)
Bit depth                                : 16 bits
Compression mode                         : Lossy
Stream size                              : 447 MiB (10%)
Title                                    : ~Ranvijay~
Language                                 : Hindi
Service kind                             : Complete Main
Default                                  : Yes
Forced                                   : Yes

Text
ID                                       : 3
Format                                   : UTF-8
Codec ID                                 : S_TEXT/UTF8
Codec ID/Info                            : UTF-8 Plain Text
Duration                                 : 2 h 12 min
Bit rate                                 : 42 b/s
Count of elements                        : 1306
Stream size                              : 41.0 KiB (0%)
Title                                    : ~Ranvijay~
Language                                 : English
Default                                  : Yes
Forced                                   : Yes

Menu
00:00:00.000                             : en:Commercial
00:01:05.000                             : en:Studio Logos, Thank you Credits
00:03:07.000                             : en:Scene 3
00:17:40.000                             : en:Scene 4
00:28:29.000                             : en:Scene 5
00:43:59.000                             : en:Scene 6
01:00:56.000                             : en:Scene 7
01:09:37.000                             : en:Scene 8
01:22:03.000                             : en:Scene 9
01:35:10.000                             : en:Scene 10
01:44:53.000                             : en:Scene 11
01:58:24.000                             : en:Scene 12
02:17:06.000                             : en:End Credits















Don't walk as you are king, walk as you don't care who the king is....!!





[url=https://www.facebook.com/groups/192253191390113/][/url]
Category:Movies > HD 1080p
Lang:Hindi  Hindi
Total Size:4.36 GB
Info Hash:74dee75b3678c11b4f6525122bfc80bd9af05516
Added By:TheFighter
Date Added:19-10-2018 05:57:38

  

Files

File List: 
 File Size
Sample - Satyameva Jayate (2018) Hindi 1080p WEB-RIP x264 AC3 DD5.1 - ESUB ~ Ranvijay.mkv21 MB
Satyameva Jayate (2018) Hindi 1080p WEB-RIP x264 AC3 DD5.1 - ESUB ~ Ranvijay.mkv4.34 GB
SpecialRDP - Premium & Affordable Web Hosting Solution.url48.00 B



Comments

There are currently no comments. Be the first one to write something !