outlander s04e12 etrg 2160p AQUAMAN ita dtone ETRG bbc 1080P game of thrones WWE hindi anal ITA 2018 the grand tour Counterpart S02E06 kandyland 1987 evo minecraft apk supergirl s04e10 Star Trek Discovery 0 Mom tushyraw 1080p.mp4-ktr tushy 18.12 1080p.mp4-ktr ddr bumblebee Mia e il Leone Bianco ethd vikings true detective 1 blindspot DTONE glass uhd Victoria S03E02 etmovies complete season you ita EtHD split xxx the punisher shameless Bohemian Rhapsody ita It Counterpart Gotham supernatural ncis Arrow Aquaman supergirl ıt 2017 young justice the orville nfl great british bake off s09e10 victoria 2018 ITA bohemian rhapsody ettv RAY DONOVAN THE BIG BANG THEORY UFC True Detective S03E03 a star is born the walking dead outlander fgt 
Warning! Use a VPN When Downloading Torrents!
Your IP Address is 54.226.58.177. Location is United States
Your Internet Provider is tracking your torrent activity! Hide your IP ADDRESS with a VPN!
We strongly recommend using ExpressVPN to anonymize your torrenting. 30 Day Money Back Guarantee!
Try it Now!
ETTV Recommended TV Shows
Arrow.S07E10.HDTV.x264-SVA[ettv] torrent
The.Passage.S01E02.WEB.x264-TBS[ettv] torrent
Black.Lightning.S02E10.HDTV.x264-SVA[ettv] torrent
Celebrity.Big.Brother.US.S02E01.HDTV.x264-[WRCR] torrent

ETTV Recommended SD
Polar.2019.HDRip.XviD.AC3-EVO torrent
Dont.Come.Back.From.the.Moon.2019.HDRip.XviD.AC3-EVO torrent
Encounter.2019.DVDRip.XviD.AC3-EVO torrent
Grinch.2018.HDRip.XViD-ETRG torrent

ETTV Recommended HD
Take The Ball Pass The Ball 2018 1080p.Bluray.HEVC.DTS-HDMA.5.1-DTOne torrent
A Winter Princess 2019 Hallmark 720p HDTV X264 Solar torrent
Reign.of.the.Supermen.2019.Multi.1080p.Bluray.Hevc.DTS-HDMA.5.1-DTOne torrent
The.Sisters.Brothers.2018.1080p.BluRay.HEVC.DTS-HD.MA.5.1-DTOne torrent

ETTV Recommended UHD
Star.Trek.Into.Darkness.2013.Multi.2160p.UHD.Bluray.x265.HDR.Atmos.7.1.[En+Hi+]-DTOne torrent
Johnny English Strikes Again 2018.UHD.2160p.Blu-ray.x265.DTS-HD.MA.7.1-DTOne torrent
The Hate U Give 2018.Multi.UHD.BluRay.2160p.x265.DTS-HD.MA.7.1-DTOne torrent
First Man 2018Multi..UHD.2160p.Bluray.x265.HDR.Atmos.7.1-DTone torrent

ETTV Recommended Cam
How to Train Your Dragon 3 2019 HDCAM XViD AC3-ETRG torrent
Mary Poppins Returns 2018 NEW HDTS x264 AC3-ETRG torrent
Second Act 2018 HDCAM x264 AC3-ETRG torrent
Glass 2019 HDCAM  x264 AC3-ETRG torrent

ETTV Recommended Foreign
Antariksham 9000KMPH (2018) [TELUGU - 720p - WEB HDRip - x264 - DD 5.1 - ESub - 2GB] - MAZE torrent
Boyz 2.2018.1080p.AMZN.WeB.DL.HEVC.DDP.5.1.DTOne torrent
Jaya Janaki Nayaka (2017) 1080p AMZN WEB-DL DDP 2.0 ESub - DTOne torrent
Why.Cheat.India.(2019).1-3.Desi.Pre.Rip.x264.AC3-DTOne torrent


Download Torrent "The Big Bang Theory (2007) Season 6 S06 + Extras (1080p BluRay x265 HEVC 10..."

IMDB Details
Description:

N/A

Genre:

N/A

Download Torrent (Magnet)
Download Torrent (File)
Seeds: 238
Leechers: 3,556
Completed: 1,239 
Last Checked: 21-10-2018 00:07:31


Loading...
Details
Title:The Big Bang Theory (2007) Season 6 S06 + Extras (1080p BluRay x265 HEVC 10...
Description:


Note from Encoder:
Includes English, Spanish and Portuguese audio tracks as well as all bonus goodies.



Encode Screenshots (Click for full quality)





Media Information
General
Format                                   : Matroska
Format version                           : Version 4 / Version 2
File size                                : 843 MiB
Duration                                 : 21 min 12 s
Overall bit rate                         : 5 561 kb/s
Encoded date                             : UTC 2018-10-13 09:18:49
Writing application                      : mkvmerge v20.0.0 ('I Am The Sun') 64-bit
Writing library                          : libebml v1.3.5 + libmatroska v1.4.8
Cover                                    : Yes
Attachments                              : cover.jpg
Writing frontend                         : StaxRip v1.7.0.6

Video
ID                                       : 1
Format                                   : HEVC
Format/Info                              : High Efficiency Video Coding
Format profile                           : Main [email protected]@Main
Codec ID                                 : V_MPEGH/ISO/HEVC
Duration                                 : 21 min 11 s
Bit rate                                 : 4 976 kb/s
Width                                    : 1 920 pixels
Height                                   : 1 080 pixels
Display aspect ratio                     : 16:9
Frame rate mode                          : Constant
Frame rate                               : 23.976 (24000/1001) FPS
Color space                              : YUV
Chroma subsampling                       : 4:2:0
Bit depth                                : 10 bits
Bits/(Pixel*Frame)                       : 0.100
Stream size                              : 754 MiB (89%)
Writing library                          : x265 2.9+1-169e76b6bbcc:[Windows][MSVC 1900][64 bit] 10bit
Encoding settings                        : cpuid=1111039 / frame-threads=3 / numa-pools=8 / wpp / no-pmode / no-pme / no-psnr / no-ssim / log-level=2 / input-csp=1 / input-res=1920x1080 / interlace=0 / total-frames=30477 / level-idc=0 / high-tier=1 / uhd-bd=0 / ref=5 / no-allow-non-conformance / no-repeat-headers / annexb / no-aud / no-hrd / info / hash=0 / no-temporal-layers / open-gop / min-keyint=23 / keyint=250 / gop-lookahead=0 / bframes=8 / b-adapt=2 / b-pyramid / bframe-bias=0 / rc-lookahead=80 / lookahead-slices=4 / scenecut=40 / radl=0 / no-intra-refresh / ctu=64 / min-cu-size=8 / no-rect / no-amp / max-tu-size=32 / tu-inter-depth=1 / tu-intra-depth=1 / limit-tu=0 / rdoq-level=2 / dynamic-rd=0.00 / no-ssim-rd / signhide / no-tskip / nr-intra=0 / nr-inter=0 / no-constrained-intra / no-strong-intra-smoothing / max-merge=4 / limit-refs=3 / limit-modes / me=3 / subme=5 / merange=57 / temporal-mvp / weightp / weightb / no-analyze-src-pics / deblock=-3:-3 / no-sao / no-sao-non-deblock / rd=4 / no-early-skip / no-rskip / no-fast-intra / no-tskip-fast / no-cu-lossless / b-intra / no-splitrd-skip / rdpenalty=0 / psy-rd=1.50 / psy-rdoq=1.80 / no-rd-refine / no-lossless / cbqpoffs=0 / crqpoffs=0 / rc=crf / crf=22.0 / qcomp=0.60 / qpstep=4 / stats-write=0 / stats-read=0 / ipratio=1.40 / pbratio=1.30 / aq-mode=3 / aq-strength=0.90 / cutree / zone-count=0 / no-strict-cbr / qg-size=32 / no-rc-grain / qpmax=69 / qpmin=0 / no-const-vbv / sar=0 / overscan=0 / videoformat=5 / range=0 / colorprim=2 / transfer=2 / colormatrix=2 / chromaloc=0 / display-window=0 / max-cll=0,0 / min-luma=0 / max-luma=1023 / log2-max-poc-lsb=8 / vui-timing-info / vui-hrd-info / slices=1 / no-opt-qp-pps / no-opt-ref-list-length-pps / no-multi-pass-opt-rps / scenecut-bias=0.05 / no-opt-cu-delta-qp / no-aq-motion / no-hdr / no-hdr-opt / no-dhdr10-opt / no-idr-recovery-sei / analysis-reuse-level=5 / scale-factor=0 / refine-intra=0 / refine-inter=0 / refine-mv=0 / no-limit-sao / ctu-info=0 / no-lowpass-dct / refine-mv-type=0 / copy-pic=1 / max-ausize-factor=1.0 / no-dynamic-refine / no-single-sei
Default                                  : Yes
Forced                                   : No

Audio #1
ID                                       : 2
Format                                   : AAC
Format/Info                              : Advanced Audio Codec
Format profile                           : LC
Codec ID                                 : A_AAC
Duration                                 : 21 min 12 s
Bit rate                                 : 376 kb/s
Channel(s)                               : 6 channels
Channel positions                        : Front: L C R, Side: L R, LFE
Sampling rate                            : 48.0 kHz
Frame rate                               : 46.875 FPS (1024 spf)
Compression mode                         : Lossy
Delay relative to video                  : 20 ms
Stream size                              : 57.0 MiB (7%)
Language                                 : English
Default                                  : No
Forced                                   : No

Audio #2
ID                                       : 3
Format                                   : AAC
Format/Info                              : Advanced Audio Codec
Format profile                           : HE-AAC / LC
Codec ID                                 : A_AAC
Duration                                 : 21 min 12 s
Bit rate                                 : 80.0 kb/s
Channel(s)                               : 2 channels
Channel positions                        : Front: L R
Sampling rate                            : 48.0 kHz / 24.0 kHz
Frame rate                               : 23.438 FPS (1024 spf)
Compression mode                         : Lossy
Delay relative to video                  : 40 ms
Stream size                              : 12.1 MiB (1%)
Language                                 : Spanish
Default                                  : No
Forced                                   : No

Audio #3
ID                                       : 4
Format                                   : AAC
Format/Info                              : Advanced Audio Codec
Format profile                           : HE-AAC / LC
Codec ID                                 : A_AAC
Duration                                 : 21 min 12 s
Bit rate                                 : 80.0 kb/s
Channel(s)                               : 2 channels
Channel positions                        : Front: L R
Sampling rate                            : 48.0 kHz / 24.0 kHz
Frame rate                               : 23.438 FPS (1024 spf)
Compression mode                         : Lossy
Delay relative to video                  : 40 ms
Stream size                              : 12.1 MiB (1%)
Language                                 : Portuguese
Default                                  : No
Forced                                   : No

Subtitle #1
ID                                       : 5
Format                                   : VobSub
Muxing mode                              : zlib
Codec ID                                 : S_VOBSUB
Codec ID/Info                            : Picture based subtitle format used on DVDs
Duration                                 : 21 min 6 s
Bit rate                                 : 14.7 kb/s
Count of elements                        : 346
Stream size                              : 2.22 MiB (0%)
Language                                 : English
Default                                  : No
Forced                                   : No

Subtitle #2
ID                                       : 6
Format                                   : VobSub
Muxing mode                              : zlib
Codec ID                                 : S_VOBSUB
Codec ID/Info                            : Picture based subtitle format used on DVDs
Duration                                 : 21 min 6 s
Bit rate                                 : 13.2 kb/s
Count of elements                        : 332
Stream size                              : 1.99 MiB (0%)
Language                                 : French
Default                                  : No
Forced                                   : No

Subtitle #3
ID                                       : 7
Format                                   : VobSub
Muxing mode                              : zlib
Codec ID                                 : S_VOBSUB
Codec ID/Info                            : Picture based subtitle format used on DVDs
Duration                                 : 21 min 6 s
Bit rate                                 : 14.1 kb/s
Count of elements                        : 331
Stream size                              : 2.13 MiB (0%)
Language                                 : Spanish
Default                                  : No
Forced                                   : No

Subtitle #4
ID                                       : 8
Format                                   : VobSub
Muxing mode                              : zlib
Codec ID                                 : S_VOBSUB
Codec ID/Info                            : Picture based subtitle format used on DVDs
Duration                                 : 21 min 6 s
Bit rate                                 : 11.0 kb/s
Count of elements                        : 333
Stream size                              : 1.66 MiB (0%)
Language                                 : Korean
Default                                  : No
Forced                                   : No

Subtitle #5
ID                                       : 9
Format                                   : VobSub
Muxing mode                              : zlib
Codec ID                                 : S_VOBSUB
Codec ID/Info                            : Picture based subtitle format used on DVDs
Duration                                 : 21 min 6 s
Bit rate                                 : 13.9 kb/s
Count of elements                        : 332
Stream size                              : 2.10 MiB (0%)
Language                                 : Spanish
Default                                  : No
Forced                                   : No

Subtitle #6
ID                                       : 10
Format                                   : VobSub
Muxing mode                              : zlib
Codec ID                                 : S_VOBSUB
Codec ID/Info                            : Picture based subtitle format used on DVDs
Duration                                 : 21 min 6 s
Bit rate                                 : 14.8 kb/s
Count of elements                        : 332
Stream size                              : 2.23 MiB (0%)
Language                                 : Portuguese
Default                                  : No
Forced                                   : No

Menu
00:00:00.000                             : en:Chapter 01
00:00:17.684                             : en:Chapter 02
00:02:42.829                             : en:Chapter 03
00:09:04.377                             : en:Chapter 04
00:19:46.560                             : en:Chapter 05
00:20:43.033                             : en:Chapter 06

Source Information
Release : The.Big.Bang.Theory.S06.1080p.BluRay.DTS-HD.MA5.1.H.264-BTNET (Thanks!)



Note from QxR:
Whilst we are happy for our releases to be re-posted on a platform we aren't on, please do so in an 'as-is' format. We ask that you do not create a new torrent, include all descriptions you see above including the QxR logo, tags, notes and screenshots. If you'd like to become a permanent poster on a website we don't post to, feel free to get in contact with a QxR member.
Category:TV > HEVC/x265
Lang:English  English
Total Size:21.01 GB
Info Hash:a588ba3b3c77689de045093741df01bf4419da4b
Added By:QxR
Date Added:21-10-2018 00:07:26

Files

File List: 
 File Size
Featurettes/Electromagnetism - Interviews/Howard & Bernadette.mkv121 MB
Featurettes/Electromagnetism - Interviews/Leonard & Penny.mkv168 MB
Featurettes/Electromagnetism - Interviews/Raj.mkv152 MB
Featurettes/Electromagnetism - Interviews/Sheldon & Amy.mkv199 MB
Featurettes/Gag Reel.mkv148 MB
Featurettes/Houston We Have a Sitcom.mkv154 MB
Featurettes/The Big Bang Theory at Paley Fest 2013.mkv750 MB
Featurettes/The Final Comedy Frontier.mkv256 MB
The Big Bang Theory (2007) - S06E01 - The Date Night Variable (1080p BluRay x265 RCVR).mkv843 MB
The Big Bang Theory (2007) - S06E02 - The Decoupling Fluctuation (1080p BluRay x265 RCVR).mkv749 MB
The Big Bang Theory (2007) - S06E03 - The Higgs Boson Observation (1080p BluRay x265 RCVR).mkv717 MB
The Big Bang Theory (2007) - S06E04 - The Re-Entry Minimization (1080p BluRay x265 RCVR).mkv845 MB
The Big Bang Theory (2007) - S06E05 - The Holographic Excitation (1080p BluRay x265 RCVR).mkv779 MB
The Big Bang Theory (2007) - S06E06 - The Extract Obliteration (1080p BluRay x265 RCVR).mkv822 MB
The Big Bang Theory (2007) - S06E07 - The Habitation Configuration (1080p BluRay x265 RCVR).mkv1.04 GB
The Big Bang Theory (2007) - S06E08 - The 43 Peculiarity (1080p BluRay x265 RCVR).mkv755 MB
The Big Bang Theory (2007) - S06E09 - The Parking Spot Escalation (1080p BluRay x265 RCVR).mkv709 MB
The Big Bang Theory (2007) - S06E10 - The Fish Guts Displacement (1080p BluRay x265 RCVR).mkv786 MB
The Big Bang Theory (2007) - S06E11 - The Santa Simulation (1080p BluRay x265 RCVR).mkv782 MB
The Big Bang Theory (2007) - S06E12 - The Egg Salad Equivalency (1080p BluRay x265 RCVR).mkv719 MB
The Big Bang Theory (2007) - S06E13 - The Bakersfield Expedition (1080p BluRay x265 RCVR).mkv861 MB
The Big Bang Theory (2007) - S06E14 - The Cooper Kripke Inversion (1080p BluRay x265 RCVR).mkv843 MB
The Big Bang Theory (2007) - S06E15 - The Spoiler Alert Segmentation (1080p BluRay x265 RCVR).mkv742 MB
The Big Bang Theory (2007) - S06E16 - The Tangible Affection Proof (1080p BluRay x265 RCVR).mkv797 MB
The Big Bang Theory (2007) - S06E17 - The Monster Isolation (1080p BluRay x265 RCVR).mkv961 MB
The Big Bang Theory (2007) - S06E18 - The Contractual Obligation Implementation (1080p BluRay x265 RCVR).mkv744 MB
The Big Bang Theory (2007) - S06E19 - The Closet Reconfiguration (1080p BluRay x265 RCVR).mkv728 MB
The Big Bang Theory (2007) - S06E20 - The Tenure Turbulence (1080p BluRay x265 RCVR).mkv790 MB
The Big Bang Theory (2007) - S06E21 - The Closure Alternative (1080p BluRay x265 RCVR).mkv832 MB
The Big Bang Theory (2007) - S06E22 - The Proton Resurgence (1080p BluRay x265 RCVR).mkv925 MB
The Big Bang Theory (2007) - S06E23 - The Love Spell Potential (1080p BluRay x265 RCVR).mkv756 MB
The Big Bang Theory (2007) - S06E24 - The Bon Voyage Reaction (1080p BluRay x265 RCVR).mkv1,017 MB



Comments

There are currently no comments. Be the first one to write something !