kgf sarkar Manikarnika star trek discovery thakrey Xxx kedarnath thackeray malayalam the accidental prime minister supernatural evo aquaman telugu odiyan the flash why cheat india great british bake off s09e10 vikings tushy 18.12 1080p.mp4-ktr charlie chaplin 2 1080P Hindi mirzapur ettv mr majnu the grand tour 2018 ita Adanga Maru Tin Star etmovies dtone uri EVO malayalam 2018 movies AQUAMAN ita Bumblebee ethd ITA zero etrg venom f2 1080p 2018 maari 2 Game Of Thrones viswasam TamilRockers Kannada simmba Kannada ddr simbha tushyraw 1080p.mp4-ktr mortal engines simba petta DTOne uri the surgical strike kung fu the legend Young justice tamil robot 2.0 it brazzers it 2017 2.0 thakre Njan Prakashan glass fgt bohemian rhapsody Star Trek Discovery S02E02 
Warning! Use a VPN When Downloading Torrents!
Your IP Address is 54.197.24.206. Location is United States
Your Internet Provider is tracking your torrent activity! Hide your IP ADDRESS with a VPN!
We strongly recommend using ExpressVPN to anonymize your torrenting. 30 Day Money Back Guarantee!
Try it Now!
ETTV Recommended TV Shows
The.Passage.S01E06.WEB.x264-TBS[ettv] torrent
The.Good.Doctor.S02E15.HDTV.x264-KILLERS[ettv] torrent
I.Am.the.Night.S01E04.WEBRip.x264-TBS[ettv] torrent
Magnum.P.I.2018.S01E15.HDTV.x264-SVA[ettv] torrent
Manifest.S01E16.HDTV.x264-KILLERS[ettv] torrent
American.Dad.S14E15.WEBRip.x264-TBS[ettv] torrent

ETTV Recommended SD
Mary.Queen.of.Scots.2018.BRRip.XViD.AC3-ETRG torrent
The.Possession.of.Hannah.Grace.2018.BRRip.XViD-ETRG torrent
Nightshooters 2018.BRRip.XViD-ETRG torrent
Serenity.2019.BRRip.XViD-ETRG torrent

ETTV Recommended HD
The.Appearance.2018.BluRay.1080p.HEVC.DTS-HD.MA5.1-DTOne torrent
You Might Be The Killer 2018.1080p.Blu-ray.HEVC.DTS-HDMA.5.1-DTOne torrent
Nightshooters.2018.1080p.Blu-ray.1080p.HEVC.DTS-HDMA.5.1-DTOne torrent
Serenity.2019.720p.BRRip.x264.AC3-ETRG torrent

ETTV Recommended UHD
The.Silence.of.the.Lambs.1991.2160p.UHDRip.x265.HDR.DTS-HD.MA.5.1-DTOne torrent
Robin.Hood.2018.UHD.BluRay.2160p.x265.Atmos.7.1-DTOne torrent
Big Pacific Season One 2018.2160p.UHD.BluRay.x265.SDR.FLAC.2.0-DTOne torrent
Close.Encounters.of.the.Third.Kind.1977.DC.4K.HDR.2160p.BDRip Ita Eng x265-NAHOM torrent

ETTV Recommended Cam
The Lego Movie 2 2019 HDCAM XViD AC3-ETRG torrent
How to Train Your Dragon 3 2018 NEW 720p HDCAM-1XBET torrent
Happy Death Day 2U.2019.HDCAM.XViD.AC3-ETRG torrent
What Men Want 2019 HDCAM x264 AC3 MP4KiNG torrent

ETTV Recommended Foreign
Robin.Hood.2018.Multi..BluRay.1080p.HEVC.Atmos.7.1-DTOne torrent
T-34 2018 1080p WEB-DL MPA2.0 H.264[EtHD] torrent
Awe! (2018) 720p UNCUT HDRip x264 Eng Subs [Dual Audio] [Hindi DD 2.0 - Telugu 5.1] Exclusive By -=!Dr.STAR!=- torrent
Taxiwala.2018.1080p.WebDL.AVC.AAC.ESub.DTOne torrent


Download Torrent "Female Trouble 1974 1080p BluRay BDrip FLAC 1.0 D0ct0rLew[UTR-HD]"

IMDB Details
Description:

N/A

Genre:

N/A

Download Torrent (Magnet)
Download Torrent (File)
Seeds: 44
Leechers: 16
Completed: 222 
Last Checked: 27-10-2018 01:54:31


Loading...
Details
Title:Female Trouble 1974 1080p BluRay BDrip FLAC 1.0 D0ct0rLew[UTR-HD]
Description:







Screenshots
Source



Encode


Media Information

Unique ID                                : 206897016249884200360517902039372710055 (0x9BA6EA786C2CEF019451DFBE1AE2C0A7)
Complete name                            : Female Trouble 1974 1080p BluRay BDrip FLAC 1.0 D0ct0rLew[UTR-HD].mkv
Format                                   : Matroska
Format version                           : Version 4
File size                                : 8.58 GiB
Duration                                 : 1 h 37 min
Overall bit rate mode                    : Variable
Overall bit rate                         : 12.5 Mb/s
Movie name                               : Female Trouble 1974 1080p BluRay BDRIP
Encoded date                             : UTC 2018-10-26 20:22:57
Writing application                      : mkvmerge v17.0.0 ('Be Ur Friend') 64-bit
Writing library                          : libebml v1.3.5 + libmatroska v1.4.8

Video
ID                                       : 2
Format                                   : HEVC
Format/Info                              : High Efficiency Video Coding
Format profile                           : Main [email protected]@Main
Codec ID                                 : V_MPEGH/ISO/HEVC
Duration                                 : 1 h 37 min
Bit rate                                 : 11.8 Mb/s
Width                                    : 1 920 pixels
Height                                   : 1 080 pixels
Display aspect ratio                     : 16:9
Frame rate mode                          : Constant
Frame rate                               : 23.976 (24000/1001) FPS
Color space                              : YUV
Chroma subsampling                       : 4:2:0
Bit depth                                : 10 bits
Bits/(Pixel*Frame)                       : 0.237
Stream size                              : 8.06 GiB (94%)
Writing library                          : x265 2.8+66-88ee12651e30:[Windows][GCC 8.2.0][64 bit] 10bit
Encoding settings                        : cpuid=1049583 / frame-threads=3 / numa-pools=8 / wpp / no-pmode / no-pme / no-psnr / no-ssim / log-level=2 / input-csp=1 / input-res=1920x1080 / interlace=0 / total-frames=140941 / level-idc=0 / high-tier=1 / uhd-bd=0 / ref=4 / no-allow-non-conformance / no-repeat-headers / annexb / no-aud / no-hrd / info / hash=0 / no-temporal-layers / open-gop / min-keyint=24 / keyint=240 / gop-lookahead=0 / bframes=8 / b-adapt=2 / b-pyramid / bframe-bias=0 / rc-lookahead=90 / lookahead-slices=4 / scenecut=40 / radl=0 / no-intra-refresh / ctu=64 / min-cu-size=8 / no-rect / no-amp / max-tu-size=32 / tu-inter-depth=2 / tu-intra-depth=2 / limit-tu=4 / rdoq-level=2 / dynamic-rd=0.00 / no-ssim-rd / signhide / no-tskip / nr-intra=0 / nr-inter=0 / no-constrained-intra / no-strong-intra-smoothing / max-merge=3 / limit-refs=2 / limit-modes / me=3 / subme=5 / merange=92 / temporal-mvp / weightp / weightb / no-analyze-src-pics / deblock=0:0 / sao / no-sao-non-deblock / rd=6 / no-early-skip / rskip / no-fast-intra / no-tskip-fast / no-cu-lossless / b-intra / no-splitrd-skip / rdpenalty=0 / psy-rd=1.20 / psy-rdoq=1.00 / no-rd-refine / no-lossless / cbqpoffs=0 / crqpoffs=0 / rc=crf / crf=18.0 / qcomp=0.60 / qpstep=4 / stats-write=0 / stats-read=0 / ipratio=1.40 / pbratio=1.30 / aq-mode=2 / aq-strength=1.20 / cutree / zone-count=0 / no-strict-cbr / qg-size=32 / no-rc-grain / qpmax=69 / qpmin=0 / no-const-vbv / sar=1 / overscan=0 / videoformat=5 / range=0 / colorprim=1 / transfer=1 / colormatrix=1 / chromaloc=0 / display-window=0 / max-cll=0,0 / min-luma=0 / max-luma=1023 / log2-max-poc-lsb=8 / vui-timing-info / vui-hrd-info / slices=1 / no-opt-qp-pps / no-opt-ref-list-length-pps / no-multi-pass-opt-rps / scenecut-bias=0.05 / no-opt-cu-delta-qp / no-aq-motion / no-hdr / no-hdr-opt / no-dhdr10-opt / no-idr-recovery-sei / analysis-reuse-level=5 / scale-factor=0 / refine-intra=0 / refine-inter=0 / refine-mv=0 / no-limit-sao / ctu-info=0 / no-lowpass-dct / refine-mv-type=0 / copy-pic=1 / max-ausize-factor=1.0 / no-dynamic-refine / no-single-sei
Default                                  : Yes
Forced                                   : No
Color range                              : Limited
Color primaries                          : BT.709
Transfer characteristics                 : BT.709
Matrix coefficients                      : BT.709

Audio #1
ID                                       : 3
Format                                   : FLAC
Format/Info                              : Free Lossless Audio Codec
Codec ID                                 : A_FLAC
Duration                                 : 1 h 37 min
Bit rate mode                            : Variable
Bit rate                                 : 648 kb/s
Channel(s)                               : 1 channel
Channel layout                           : C
Sampling rate                            : 48.0 kHz
Frame rate                               : 11.719 FPS (4096 SPF)
Bit depth                                : 24 bits
Compression mode                         : Lossless
Stream size                              : 454 MiB (5%)
Writing library                          : libFLAC 1.2.1 (UTC 2007-09-17)
Language                                 : English
Default                                  : Yes
Forced                                   : No

Audio #2
ID                                       : 4
Format                                   : AAC LC
Format/Info                              : Advanced Audio Codec Low Complexity
Codec ID                                 : A_AAC-2
Duration                                 : 1 h 37 min
Bit rate                                 : 96.0 kb/s
Channel(s)                               : 1 channel
Channel layout                           : C
Sampling rate                            : 48.0 kHz
Frame rate                               : 46.875 FPS (1024 SPF)
Compression mode                         : Lossy
Delay relative to video                  : 9 ms
Stream size                              : 67.3 MiB (1%)
Title                                    : Commentary by director John Waters
Language                                 : English
Default                                  : No
Forced                                   : No

Text
ID                                       : 1
Format                                   : UTF-8
Codec ID                                 : S_TEXT/UTF8
Codec ID/Info                            : UTF-8 Plain Text
Duration                                 : 1 h 37 min
Bit rate                                 : 90 b/s
Count of elements                        : 1703
Stream size                              : 64.7 KiB (0%)
Language                                 : English
Default                                  : Yes
Forced                                   : No

Menu
00:00:00.000                             : en:"Dawn Davenport, Youth, 1960"
00:07:47.008                             : en:Cha-cha heels
00:12:37.882                             : en:"I'm pregnant, and I want money"
00:14:43.257                             : en:Career girl
00:22:36.647                             : en:The Lipstick Beauty Salon
00:27:32.693                             : en:Married life
00:39:39.919                             : en:Playing car accident
00:45:22.678                             : en:"Acid! It's eating her face!"
00:50:14.220                             : en:"Pretty, pretty?"
01:00:18.740                             : en:"I'll be your sugar daddy"
01:12:37.436                             : en:Show business
01:21:19.208                             : en:The whisperings of a madwoman
01:29:11.429                             : en:"My final curtain call"


Source Media Information

Unique ID                                : 22137313303459037273801946018665431799 (0x10A77DD0300988FA8E6B861EE55B82F7)
Complete name                            : Female.Trouble.1974.1080p.BluRay.REMUX.AVC.FLAC.1.0-EPSiLON.mkv
Format                                   : Matroska
Format version                           : Version 4 / Version 2
File size                                : 23.4 GiB
Duration                                 : 1 h 37 min
Overall bit rate mode                    : Variable
Overall bit rate                         : 34.2 Mb/s
Encoded date                             : UTC 2018-10-01 06:06:44
Writing application                      : mkvmerge v27.0.0 ('Metropolis') 64-bit
Writing library                          : libebml v1.3.6 + libmatroska v1.4.9

Video
ID                                       : 1
Format                                   : AVC
Format/Info                              : Advanced Video Codec
Format profile                           : [email protected]
Format settings, CABAC                   : Yes
Format settings, ReFrames                : 4 frames
Codec ID                                 : V_MPEG4/ISO/AVC
Duration                                 : 1 h 37 min
Bit rate mode                            : Variable
Bit rate                                 : 33.3 Mb/s
Maximum bit rate                         : 37.0 Mb/s
Width                                    : 1 920 pixels
Height                                   : 1 080 pixels
Display aspect ratio                     : 16:9
Frame rate mode                          : Constant
Frame rate                               : 23.976 (24000/1001) FPS
Color space                              : YUV
Chroma subsampling                       : 4:2:0
Bit depth                                : 8 bits
Scan type                                : Progressive
Bits/(Pixel*Frame)                       : 0.670
Stream size                              : 22.8 GiB (97%)
Title                                    : MPEG-4 AVC Video / 33414 kbps / 1080p / 23,976 fps / 16:9 / High Profile 4.1
Language                                 : English
Default                                  : Yes
Forced                                   : No

Audio #1
ID                                       : 2
Format                                   : FLAC
Format/Info                              : Free Lossless Audio Codec
Codec ID                                 : A_FLAC
Duration                                 : 1 h 37 min
Bit rate mode                            : Variable
Bit rate                                 : 648 kb/s
Channel(s)                               : 1 channel
Channel positions                        : Front: C
Sampling rate                            : 48.0 kHz
Frame rate                               : 11.719 FPS (4096 spf)
Bit depth                                : 24 bits
Stream size                              : 454 MiB (2%)
Title                                    : FLAC Audio / 1.0 / 48 kHz / 648 kbps / 24-bit
Writing library                          : libFLAC 1.2.1 (UTC 2007-09-17)
Language                                 : English
Default                                  : Yes
Forced                                   : No

Audio #2
ID                                       : 3
Format                                   : AC-3
Format/Info                              : Audio Coding 3
Format settings, Endianness              : Big
Codec ID                                 : A_AC3
Duration                                 : 1 h 37 min
Bit rate mode                            : Constant
Bit rate                                 : 192 kb/s
Channel(s)                               : 1 channel
Channel positions                        : Front: C
Sampling rate                            : 48.0 kHz
Frame rate                               : 31.250 FPS (1536 spf)
Bit depth                                : 16 bits
Compression mode                         : Lossy
Stream size                              : 135 MiB (1%)
Title                                    : Commentary by director John Waters
Language                                 : English
Service kind                             : Complete Main
Default                                  : No
Forced                                   : No

Text
ID                                       : 4
Format                                   : PGS
Codec ID                                 : S_HDMV/PGS
Codec ID/Info                            : Picture based subtitle format used on BDs/HD-DVDs
Duration                                 : 1 h 37 min
Bit rate                                 : 76.9 kb/s
Count of elements                        : 3406
Stream size                              : 53.6 MiB (0%)
Title                                    : SDH
Language                                 : English
Default                                  : No
Forced                                   : No

Menu
00:00:00.000                             : en:"Dawn Davenport, Youth, 1960"
00:07:47.008                             : en:Cha-cha heels
00:12:37.882                             : en:"I'm pregnant, and I want money"
00:14:43.257                             : en:Career girl
00:22:36.647                             : en:The Lipstick Beauty Salon
00:27:32.693                             : en:Married life
00:39:39.919                             : en:Playing car accident
00:45:22.678                             : en:"Acid! It's eating her face!"
00:50:14.220                             : en:"Pretty, pretty?"
01:00:18.740                             : en:"I'll be your sugar daddy"
01:12:37.436                             : en:Show business
01:21:19.208                             : en:The whisperings of a madwoman
01:29:11.429                             : en:"My final curtain call"
 

We have no issue with individuals posting or re-uploading our torrents on a platform we aren't on. However, if this is something you'd like to do, please do so in a 'as-is' format. We ask that you do not create a new torrent, include all descriptions you see above including the UTR logo, tags, notes and screenshots. If you'd like to become a permanent poster on a website we don't post to, feel free to get in contact with a UniTeam member.

Category:Movies > HEVC/x265
Lang:English  English
Total Size:8.58 GB
Info Hash:29e792e9c58cdbd921895df916aa83ea2b6d4f02
Added By:UTRHD
Date Added:27-10-2018 01:54:27

Files

File List: 
 File Size
Female Trouble 1974 1080p BluRay BDrip FLAC 1.0 D0ct0rLew[UTR-HD].mkv8.58 GB



Comments

There are currently no comments. Be the first one to write something !