italian titans dtone etmovies Ray Donovan windows 10 2 madam secretary 720p YIFY game of thrones ita Bohemian Rhapsody big bang theory the big bang theory christmas Nightflyers the flash fgt WWE 1080p 2018 Legends of Tomorrow lethal weapon 0 anal HINDI supergirl s04e09 Legends of tomorrow s04e08 UHD Aquaman 720p Ncis EVO FBI evo the walking dead movies 2018 Arrow S07E09 Dtone 2018 ita ettv star trek discovery español venom supergirl the flash s05e09 2160p black lightning s02e09 rogets 2018 movies ıt 2017 ethd Vikings 1080p YIFY doctor who Black lightning IT Outlander S04E06 1080p Xxx 1 3 ETRG ddr the rookie flash SUPERNATURAL ita 2018 x265 Arrow etrg BBC 
Warning! Use a VPN When Downloading Torrents!
Your IP Address is 54.226.36.60. Location is United States
Your Internet Provider is tracking your torrent activity! Hide your IP ADDRESS with a VPN!
We strongly recommend using ExpressVPN to anonymize your torrenting. 30 Day Money Back Guarantee!
Try it Now!
ETTV Recommended TV Shows
Supergirl.S04E09.HDTV.x264-SVA[ettv] torrent
NCIS.S16E10.HDTV.x264-SVA[ettv] torrent
The.Rookie.S01E08.HDTV.x264-KILLERS[ettv] torrent
Black.Lightning.S02E09.WEB.h264-TBS[ettv] torrent

ETTV Recommended Xvid
Night.School.2018.HDRip.XViD-ETRG torrent
White.Boy.Rick.2018.HDRip.XViD-ETRG torrent
Troy The Resurrection of Aeneas.2018.HDRip.XviD.AC3-EVO torrent
First.Man.2018.HDRip.XviD.AC3-EVO[EtMovies] torrent

ETTV Recommended HD
Night.School.2018.1080p.WEB-DL.H264.AC3-EVO[EtHD] torrent
The.Predator.2018.MULTi.BluRay.1080p.HEVC.DTS-HD.MA7.1-DTOne torrent
Small Foot 2018.MULTi.Bluray.1080p.HEVC.DTS-HDMA.5.1-DTOne torrent
First.Man.2018.1080p.WEB-DL.H264.AC3-EVO[EtHD] torrent

ETTV Recommended UHD
Mission Impossible - Fallout.2018.IMAX.Muti.UHD.2160p.Bluray.x265.Atmos.7.1[En+Hi+]-DTOne torrent
Venom 2018.MULTi.UHD.2160p.BluRay.x265.HDR.Atmos.7.1-DTOne torrent
The Nun 2018 MULTi.UHD.2160p.Bluray.x265.HDR.Atmos.7.1-DTOne torrent
River Runs Red 2018.UHD.2160p.Bluray.x265.HDR.DTS-HDMA..1-DTOne torrent

ETTV Recommended Cam
The Possession of Hannah Grace 2018 HDCAM.XViD.AC3-ETRG torrent
Fantastic Beasts The Crimes of Grindelwald 2018 HD-TS.XViD.AC3-ETRG torrent
Creed 2 2018.NEW HDCAM.XViD.AC3-ETRG torrent
Instant.Family.2018.HDCAM.x264.AC3-ETRG torrent

ETTV Recommended Foreign
Pandora.2016.KOR.Bluray.1080p.HEVC.DTS-HDMA.5.1-DTOne torrent
Teri Bhabhi Hai Pagle (2018) 1080p UntoucheD HDTv - AVC - AAC - DTOne.mkv torrent
Jalebi - The Taste of Everlasting Love (2018) 1080p AMZN WEB-DL DDP 5.1 ESub - DTOne torrent
Manmarziyaa.2018.2018.1080.EroS.WeB.DL.ACC.AVC.DTOne.mp4 torrent


Download Torrent "House of Cards (2013) Season 02 S02 (1080p NF WEBRip x265 HEVC 10bit AAC 5...."

IMDB Details
Description:

N/A

Genre:

N/A

Download Torrent (Magnet)
Download Torrent (File)
Seeds: 80
Leechers: 70
Completed: 84,459 
Last Checked: 10-11-2018 04:26:03


Loading...
Details
Title:House of Cards (2013) Season 02 S02 (1080p NF WEBRip x265 HEVC 10bit AAC 5....
Description:






Media Information
General
Format                                   : Matroska
Format version                           : Version 4 / Version 2
File size                                : 391 MiB
Duration                                 : 49 min 37 s
Overall bit rate                         : 1 102 kb/s
Encoded date                             : UTC 2016-03-07 02:56:09
Writing application                      : mkvmerge v8.4.0 ('A better way to fly') 64bit
Writing library                          : libebml v1.3.1 + libmatroska v1.4.2

Video
ID                                       : 1
Format                                   : HEVC
Format/Info                              : High Efficiency Video Coding
Format profile                           : Main [email protected]@Main
Codec ID                                 : V_MPEGH/ISO/HEVC
Duration                                 : 49 min 37 s
Bit rate                                 : 905 kb/s
Width                                    : 1 920 pixels
Height                                   : 960 pixels
Display aspect ratio                     : 2.000
Frame rate mode                          : Constant
Frame rate                               : 23.976 (24000/1001) FPS
Color space                              : YUV
Chroma subsampling                       : 4:2:0
Bit depth                                : 10 bits
Bits/(Pixel*Frame)                       : 0.020
Stream size                              : 321 MiB (82%)
Writing library                          : x265 1.8+38-fe65544b6c40:[Windows][GCC 4.8.2][64 bit] 10bit
Encoding settings                        : wpp / ctu=64 / min-cu-size=8 / max-tu-size=32 / tu-intra-depth=1 / tu-inter-depth=1 / me=1 / subme=2 / merange=57 / no-rect / no-amp / max-merge=2 / temporal-mvp / no-early-skip / rdpenalty=0 / no-tskip / no-tskip-fast / strong-intra-smoothing / no-lossless / no-cu-lossless / no-constrained-intra / fast-intra / open-gop / no-temporal-layers / interlace=0 / keyint=250 / min-keyint=23 / scenecut=40 / rc-lookahead=15 / lookahead-slices=0 / bframes=4 / bframe-bias=0 / b-adapt=0 / ref=2 / limit-refs=0 / weightp / no-weightb / aq-mode=1 / qg-size=32 / aq-strength=1.00 / cbqpoffs=0 / crqpoffs=0 / rd=2 / psy-rd=0.30 / rdoq-level=0 / psy-rdoq=0.00 / signhide / deblock / sao / no-sao-non-deblock / b-pyramid / cutree / rc=2 / pass / bitrate=904 / qcomp=0.60 / qpmin=0 / qpmax=51 / qpstep=4 / cplxblur=20.0 / qblur=0.5 / ipratio=1.40 / pbratio=1.30
Default                                  : Yes
Forced                                   : No

Audio
ID                                       : 2
Format                                   : AAC
Format/Info                              : Advanced Audio Codec
Format profile                           : HE-AAC / LC
Codec ID                                 : A_AAC
Duration                                 : 49 min 31 s
Bit rate                                 : 192 kb/s
Channel(s)                               : 6 channels
Channel positions                        : Front: L C R, Side: L R, LFE
Sampling rate                            : 48.0 kHz / 24.0 kHz
Frame rate                               : 23.438 FPS (1024 spf)
Compression mode                         : Lossy
Delay relative to video                  : 31 ms
Stream size                              : 69.0 MiB (18%)
Language                                 : English
Default                                  : Yes
Forced                                   : No

Subtitle
ID                                       : 3
Format                                   : UTF-8
Codec ID                                 : S_TEXT/UTF8
Codec ID/Info                            : UTF-8 Plain Text
Duration                                 : 46 min 48 s
Bit rate                                 : 79 b/s
Count of elements                        : 630
Stream size                              : 27.1 KiB (0%)
Language                                 : English
Default                                  : No
Forced                                   : No

Source Information
Release: Joy's Back Catalog


UTR wrote:

Note From UTR
We have no issue with individuals posting or re-uploading our torrents on a platform we aren't on. However, if this is something you'd like to do, please do so in a 'as-is' format. We ask that you do not create a new torrent, include all descriptions you see above including the UTR logo, tags, notes and screenshots. If you'd like to become a permanent poster on a website we don't post to, feel free to get in contact with a UniTeam member.

If possible please donate: BTC 1QA5fum5AyXvWzdVCkQzUNvw3Ef15fHRaR


Category:TV > HEVC/x265
Lang:English  English
Total Size:5.03 GB
Info Hash:3bcd3ef2eb4e6a9dffabb2c5543d6d1707abc68d
Added By:UTR
Date Added:10-11-2018 04:25:56

Files

File List: 
 File Size
Encoded by JoyBell.txt459.00 B
House of Cards S02E01 Chapter 14 (1080p x265 10bit Joy).mkv391 MB
House of Cards S02E02 Chapter 15 (1080p x265 10bit Joy).mkv384 MB
House of Cards S02E03 Chapter 16 (1080p x265 10bit Joy).mkv403 MB
House of Cards S02E04 Chapter 17 (1080p x265 10bit Joy).mkv378 MB
House of Cards S02E05 Chapter 18 (1080p x265 10bit Joy).mkv386 MB
House of Cards S02E06 Chapter 19 (1080p x265 10bit Joy).mkv407 MB
House of Cards S02E07 Chapter 20 (1080p x265 10bit Joy).mkv380 MB
House of Cards S02E08 Chapter 21 (1080p x265 10bit Joy).mkv372 MB
House of Cards S02E09 Chapter 22 (1080p x265 10bit Joy).mkv387 MB
House of Cards S02E10 Chapter 23 (1080p x265 10bit Joy).mkv400 MB
House of Cards S02E11 Chapter 24 (1080p x265 10bit Joy).mkv421 MB
House of Cards S02E12 Chapter 25 (1080p x265 10bit Joy).mkv371 MB
House of Cards S02E13 Chapter 26 (1080p x265 10bit Joy).mkv467 MB
How to play HEVC (THIS FILE).txt2.88 kB
Ninite K-Lite Codecs Unattended Silent Installer and Updater.website561.00 B



Comments

There are currently no comments. Be the first one to write something !