kgf sarkar Manikarnika star trek discovery thakrey Xxx kedarnath thackeray malayalam the accidental prime minister supernatural evo aquaman telugu odiyan the flash why cheat india great british bake off s09e10 vikings tushy 18.12 1080p.mp4-ktr charlie chaplin 2 1080P Hindi mirzapur ettv mr majnu the grand tour 2018 ita Adanga Maru Tin Star etmovies dtone uri EVO malayalam 2018 movies AQUAMAN ita Bumblebee ethd ITA zero etrg venom f2 1080p 2018 maari 2 Game Of Thrones viswasam TamilRockers Kannada simmba Kannada ddr simbha tushyraw 1080p.mp4-ktr mortal engines simba petta DTOne uri the surgical strike kung fu the legend Young justice tamil robot 2.0 it brazzers it 2017 2.0 thakre Njan Prakashan glass fgt bohemian rhapsody Star Trek Discovery S02E02 
Warning! Use a VPN When Downloading Torrents!
Your IP Address is 54.87.18.165. Location is United States
Your Internet Provider is tracking your torrent activity! Hide your IP ADDRESS with a VPN!
We strongly recommend using ExpressVPN to anonymize your torrenting. 30 Day Money Back Guarantee!
Try it Now!
ETTV Recommended TV Shows
Arrow.S07E17.HDTV.x264-SVA[ettv] torrent
Magnum.P.I.2018.S01E19.HDTV.x264-SVA[ettv] torrent
Knightfall.S02E01.HDTV.x264-SHiTSPREAD[ettv] torrent
Into.the.Badlands.S03E10.HDTV.x264-SVA[ettv] torrent
The.Enemy.Within.S01E05.HDTV.x264-SVA[ettv] torrent
WWE RAW 2019 03 25 HDTV x264-Star [TJET] torrent

ETTV Recommended SD
Welcome.to.Marwen.2019.HDRip.XViD-ETRG torrent
On.the.Basis.of.Sex.2018.HDRip.XViD.AC3-ETRG torrent
Nancy Drew and the Hidden Staircase.2019.HDRip.XviD.AC3-EVO torrent
Mercy.Black.2019.HDRip.XViD-ETRG torrent

ETTV Recommended HD
Stephen King's - Pet Sematary 1989.MULTi.1080p.Blu-ray.HEVC.DTS-HDMA.5.1-DDR torrent
The Final Wish 2018.1080p.Blu-ray.HEVC.DTS-HDMA.5.1-DDR torrent
Toto - 40 Tours Around the Sun 2019.BluRay1080p.HEVC.DTS-HD.MA.5.1-DDR torrent
Let the Corps Tan 2018.MULTi.1080p.Blu-ray.HEVC.DTS-HDMA.5.1-DDR torrent

ETTV Recommended UHD
Pet Sematary 1989.Multi.2160p.Blu-ray.HEVC.HDR.DTS-HDMA.5.1-DDR torrent
Borneo - Fascinating Asia 2016.UHD.2160p.SDR.HEVC.DTS-HDMA.5.1-DDR torrent
Bumblebee.2018.UHD.2160p.BluRay.Remux.HEVC.DD.5.1.Dolby.Vision.Remux-DDR torrent
Dragged Across Concrete 2018.2160p.UHDrip.HEVC.DDP.5.1-DDR torrent

ETTV Recommended Cam
Alita.Battle.Angel.2019.HDTS x264.AC3-ETRG torrent
US.2019.720p.HDCAM.x264.AC3-ETRG torrent
A Madea Family Funeral 2019 NEW SOURCE 720p HDCAM WaTcHeRs torrent
Captain Marvel 2019 HDTS x264 AC3-ETRG torrent

ETTV Recommended Foreign
Ring Around the Rosie (2006) 720p WEB-DL x264 Eng Subs [Dual Audio] [Hindi DD 2.0 - English 5.1] Exclusive By -=!Dr.STAR!=- torrent
Kabhi Alvida Naa Kehna 2006.UHD.2160p.SDR.HEVC.DTS-HDMA.5.1-DDR torrent
FAN 2016.UHD.2160p.SDR.HEVC.Atmos.7.1-DDR torrent
Dilwale 2015.UHD.2160p.SDR.HEVC.DTS-HDMA.5.1-DDR torrent


Download Torrent "The Walking Dead S09E07 (1080p AMZN WEB-DL x265 HEVC 10bit AAC 5.1 Joy) [UT..."

IMDB Details
Description:

N/A

Genre:

N/A

Download Torrent (Magnet)
Download Torrent (File)
Seeds: 474
Leechers: 95
Completed: 4,065 
Last Checked: 21-11-2018 09:29:15


Loading...
Details
Title:The Walking Dead S09E07 (1080p AMZN WEB-DL x265 HEVC 10bit AAC 5.1 Joy) [UT...
Description:





Media Information
General
Format                                   : Matroska
Format version                           : Version 4 / Version 2
File size                                : 447 MiB
Duration                                 : 43 min 59 s
Overall bit rate                         : 1 421 kb/s
Movie name                               : The Walking Dead S09E07 Stradivarius  (1080p x265 10bit Joy)
Encoded date                             : UTC 2018-11-20 09:12:19
Writing application                      : mkvmerge v25.0.0 ('Prog Noir') 64-bit
Writing library                          : libebml v1.3.6 + libmatroska v1.4.9
Writing frontend                         : StaxRip v1.8.2.0, Encoded by JoyBell

Video
ID                                       : 1
Format                                   : HEVC
Format/Info                              : High Efficiency Video Coding
Format profile                           : Main [email protected]@Main
Codec ID                                 : V_MPEGH/ISO/HEVC
Duration                                 : 43 min 59 s
Bit rate                                 : 1 199 kb/s
Width                                    : 1 920 pixels
Height                                   : 1 080 pixels
Display aspect ratio                     : 16:9
Frame rate mode                          : Constant
Frame rate                               : 23.976 (24000/1001) FPS
Original frame rate                      : 24.000 FPS
Color space                              : YUV
Chroma subsampling                       : 4:2:0
Bit depth                                : 10 bits
Bits/(Pixel*Frame)                       : 0.024
Stream size                              : 377 MiB (84%)
Writing library                          : x265 2.8+19-bcdc610cf5f0:[Windows][MSVC 1914][64 bit] 10bit
Encoding settings                        : cpuid=1111039 / frame-threads=3 / numa-pools=8 / wpp / no-pmode / no-pme / no-psnr / ssim / log-level=2 / input-csp=1 / input-res=1920x1080 / interlace=0 / total-frames=63292 / level-idc=0 / high-tier=1 / uhd-bd=0 / ref=4 / no-allow-non-conformance / no-repeat-headers / annexb / no-aud / no-hrd / info / hash=0 / no-temporal-layers / open-gop / min-keyint=24 / keyint=250 / gop-lookahead=0 / bframes=4 / b-adapt=2 / b-pyramid / bframe-bias=0 / rc-lookahead=80 / lookahead-slices=4 / scenecut=40 / radl=0 / no-intra-refresh / ctu=64 / min-cu-size=8 / no-rect / no-amp / max-tu-size=32 / tu-inter-depth=1 / tu-intra-depth=1 / limit-tu=0 / rdoq-level=2 / dynamic-rd=0.00 / ssim-rd / signhide / no-tskip / nr-intra=0 / nr-inter=0 / no-constrained-intra / strong-intra-smoothing / max-merge=3 / limit-refs=3 / limit-modes / me=3 / subme=3 / merange=57 / temporal-mvp / weightp / no-weightb / no-analyze-src-pics / deblock=0:0 / sao / no-sao-non-deblock / rd=4 / no-early-skip / rskip / no-fast-intra / no-tskip-fast / no-cu-lossless / no-b-intra / no-splitrd-skip / rdpenalty=0 / psy-rd=2.05 / psy-rdoq=0.95 / no-rd-refine / no-lossless / cbqpoffs=0 / crqpoffs=0 / rc=abr / bitrate=1200 / qcomp=0.60 / qpstep=4 / stats-write=0 / stats-read=2 / cplxblur=20.0 / qblur=0.5 / vbv-maxrate=3200 / vbv-bufsize=7400 / vbv-init=0.9 / ipratio=1.40 / pbratio=1.30 / aq-mode=2 / aq-strength=0.80 / cutree / zone-count=0 / no-strict-cbr / qg-size=32 / no-rc-grain / qpmax=69 / qpmin=0 / no-const-vbv / sar=0 / overscan=0 / videoformat=5 / range=0 / colorprim=2 / transfer=2 / colormatrix=2 / chromaloc=0 / display-window=0 / max-cll=0,0 / min-luma=0 / max-luma=1023 / log2-max-poc-lsb=8 / vui-timing-info / vui-hrd-info / slices=1 / no-opt-qp-pps / no-opt-ref-list-length-pps / multi-pass-opt-rps / scenecut-bias=0.05 / no-opt-cu-delta-qp / no-aq-motion / no-hdr / no-hdr-opt / no-dhdr10-opt / no-idr-recovery-sei / analysis-reuse-level=10 / scale-factor=0 / refine-intra=0 / refine-inter=0 / refine-mv=0 / limit-sao / ctu-info=0 / no-lowpass-dct / refine-mv-type=0 / copy-pic=1 / max-ausize-factor=1.0 / no-dynamic-refine / no-single-sei
Default                                  : Yes
Forced                                   : No

Audio
ID                                       : 2
Format                                   : AAC
Format/Info                              : Advanced Audio Codec
Format profile                           : HE-AAC / LC
Codec ID                                 : A_AAC
Duration                                 : 43 min 59 s
Bit rate                                 : 220 kb/s
Channel(s)                               : 6 channels
Channel positions                        : Front: L C R, Side: L R, LFE
Sampling rate                            : 48.0 kHz / 24.0 kHz
Frame rate                               : 23.438 FPS (1024 spf)
Compression mode                         : Lossy
Delay relative to video                  : 31 ms
Stream size                              : 69.3 MiB (15%)
Language                                 : English
Default                                  : No
Forced                                   : No

Subtitle #1
ID                                       : 3
Format                                   : UTF-8
Codec ID                                 : S_TEXT/UTF8
Codec ID/Info                            : UTF-8 Plain Text
Duration                                 : 43 min 46 s
Bit rate                                 : 50 b/s
Count of elements                        : 689
Stream size                              : 16.3 KiB (0%)
Language                                 : English
Default                                  : No
Forced                                   : No

Subtitle #2
ID                                       : 4
Format                                   : UTF-8
Codec ID                                 : S_TEXT/UTF8
Codec ID/Info                            : UTF-8 Plain Text
Duration                                 : 43 min 50 s
Bit rate                                 : 56 b/s
Count of elements                        : 809
Stream size                              : 18.2 KiB (0%)
Language                                 : English
Default                                  : No
Forced                                   : No

Source Information
Release: The.Walking.Dead.S09E07.Stradivarius.1080p.AMZN.WEB-DL.DD+5.1.H.264-CasStudio.mkv (4.44 GBs)

Category:TV > HEVC/x265
Lang:English  English
Total Size:447 MB
Info Hash:c90db177a486acb648b47f2cf3b2d5a263a6ac4d
Added By:UTR
Date Added:21-11-2018 09:29:03

Files

File List: 
 File Size
The Walking Dead S09E07 Stradivarius (1080p x265 10bit FS78 Joy).mkv447 MB



Comments

There are currently no comments. Be the first one to write something !