ettv 2017 1080p YIFY supergirl ita 2018 1080p vikings s05e13 ddr hindi tushy 18.12 1080p.mp4-ktr queen mp3 Aquaman Travelers bohemian rhapsody christmas Ncis wwe modern family dtone midnight texas homeland arrow etrg destruction mp3 EtHD DTOne it bbc ethd 1080p 2018 fortitude 0 2 it 2017 nfl CBC MASSEY LECTURES 2017 gold rush supernatural nightflyers star trek discovery español fgt venom 2018 ITA AVENGERS Vikings hunter killer etmovies the big bang theory Carolina Moon 1994 Z nation 1080p YIFY big bang theory XXX the flash titans s01e10 the walking dead legalporno 2018.12 game of thrones ita 2160p Age of the Living Dead 720p 2018 1080p YIFY mircrew tushyraw 1080p.mp4-ktr blue my mind evo 1 Titans Stonehearst.Asylum.Eliza.Graves.2014.BDRip.AC3.ITA 2018 movies first man 
Warning! Use a VPN When Downloading Torrents!
Your IP Address is 3.80.177.176. Location is United States
Your Internet Provider is tracking your torrent activity! Hide your IP ADDRESS with a VPN!
We strongly recommend using ExpressVPN to anonymize your torrenting. 30 Day Money Back Guarantee!
Try it Now!
ETTV Recommended TV Shows
Outlander.S04E07.WEB.H264-MEMENTO[ettv] torrent
Ray.Donovan.S06E08.WEBRip.x264-PBS[ettv] torrent
Counterpart.S02E02.WEB.H264-MEMENTO[ettv] torrent
Saturday.Night.Live.S44E09.Matt.Damon.WEB.x264-TBS[ettv] torrent

ETTV Recommended Xvid
Hunter Killer.2018.Cropped.HC.HDRip.XViD-ETRG torrent
The.House.with.a.Clock.in.Its.Walls.2018.BRRip.XViD-ETRG torrent
Fantastic.Beasts.The.Crimes.of.Grindelwald.2018.HC.HDRip.XviD.AC3-EVO torrent
Bird.Box.2018.HDRip.XviD.AC3-EVO[EtMovies] torrent

ETTV Recommended HD
A.Simple.Favor.2018.1080p.BluRay.HEVC.DTS-HD.MA.5.1-DTOne torrent
Under.the.Silver.Lake.2018.MULTi.Bluray.1080p.HEVC.DTS-HDMA.5.1-DTOne torrent
Fantastic.Beasts.The.Crimes.of.Grindelwald.2018.1080p.HC.HDRip.X264.AC3-EVO[EtHD] torrent
Bird.Box.2018.NF.1080p.WEB-DL.H264.AC3-EVO[EtHD] torrent

ETTV Recommended UHD
Mission Impossible - Fallout.2018.IMAX.Muti.UHD.2160p.Bluray.x265.Atmos.7.1[En+Hi+]-DTOne torrent
Venom 2018.MULTi.UHD.2160p.BluRay.x265.HDR.Atmos.7.1-DTOne torrent
The Nun 2018 MULTi.UHD.2160p.Bluray.x265.HDR.Atmos.7.1-DTOne torrent
River Runs Red 2018.UHD.2160p.Bluray.x265.HDR.DTS-HDMA..1-DTOne torrent

ETTV Recommended Cam
Spider-Man Into the Spider-Verse 2018 NEW HDCAM.XViD.AC3-ETRG torrent
Aquaman.2018.NEW 2018 HDCAM.x264.AC3-ETRG torrent
Bumblebee 2018 NEW SOURCE 720p HDCAM ENG-1XBET torrent
Instant.Family.2018.HDCAM.x264.AC3-ETRG torrent

ETTV Recommended Foreign
Helicopter.Eela.(2018).1080p.WEB-DL.AAC.DTOne torrent
Andhadhun.(2018).1080p.Web-DL.DDP.5.1.ESub-DTOne torrent
Hello Naan Pei Pesuren (2016) 720p UNCUT HDRip x264 [Dual Audio] [Hindi DD 2.0 - Tamil 2.0] Exclusive By -=!Dr.STAR!=- torrent
Kaatrin Mozhi (2018) [TAMIL - 720p - WEB HDRip - x264 - DD 5.1 - ESub - 2GB] - MAZE torrent


Download Torrent "2001 A Space Odyssey (1968) (2160p BluRay x265 HEVC 10bit AAC 5.1 Joy) [UTR..."

IMDB Details
Description:

A space-opera spanning the dawn of man to humanity reaching the stars, 2001: A Space Odyssey tells the story of the Black Monolith, humanity's evolution and the rise of A.I.'s ultimate supercomputer HAL 9000.

Genre:

Adventure, Sci-Fi

Download Torrent (Magnet)
Download Torrent (File)
Seeds: 72
Leechers: 136
Completed: 1,764 
Last Checked: 04-12-2018 14:27:30


Loading...
Details
Title:2001 A Space Odyssey (1968) (2160p BluRay x265 HEVC 10bit AAC 5.1 Joy) [UTR...
Description:





Media Information
General
Format                                   : Matroska
Format version                           : Version 4 / Version 2
File size                                : 6.78 GiB
Duration                                 : 2 h 28 min
Overall bit rate                         : 6 519 kb/s
Movie name                               : 2001 A Space Odyssey 1968  (2160p x265 10bit S90 Joy)[UTR]
Encoded date                             : UTC 2018-12-02 11:27:45
Writing application                      : mkvmerge v28.1.0 ('Morning Child') 64-bit
Writing library                          : libebml v1.3.6 + libmatroska v1.4.9
Cover                                    : Yes
Attachments                              : cover.jpg
Writing frontend                         : StaxRip v2.0, Encoded by JoyBell

Video
ID                                       : 1
Format                                   : HEVC
Format/Info                              : High Efficiency Video Coding
Format profile                           : Main [email protected]@Main
Codec ID                                 : V_MPEGH/ISO/HEVC
Duration                                 : 2 h 28 min
Bit rate                                 : 5 984 kb/s
Width                                    : 3 840 pixels
Height                                   : 1 744 pixels
Display aspect ratio                     : 2.2:1
Frame rate mode                          : Constant
Frame rate                               : 23.976 (24000/1001) FPS
Color space                              : YUV
Chroma subsampling                       : 4:2:0
Bit depth                                : 10 bits
Bits/(Pixel*Frame)                       : 0.037
Stream size                              : 6.22 GiB (92%)
Writing library                          : x265 2.9+8-27d8424c799d:[Windows][GCC 8.2.0][64 bit] 10bit
Encoding settings                        : cpuid=1111039 / frame-threads=3 / numa-pools=12 / wpp / no-pmode / no-pme / no-psnr / ssim / log-level=2 / input-csp=1 / input-res=3840x1744 / interlace=0 / total-frames=214088 / level-idc=0 / high-tier=1 / uhd-bd=0 / ref=3 / no-allow-non-conformance / no-repeat-headers / annexb / no-aud / no-hrd / info / hash=0 / no-temporal-layers / open-gop / min-keyint=23 / keyint=250 / gop-lookahead=0 / bframes=8 / b-adapt=2 / b-pyramid / bframe-bias=0 / rc-lookahead=20 / lookahead-slices=8 / scenecut=40 / radl=0 / no-intra-refresh / ctu=64 / min-cu-size=8 / no-rect / no-amp / max-tu-size=32 / tu-inter-depth=1 / tu-intra-depth=1 / limit-tu=0 / rdoq-level=1 / dynamic-rd=4.00 / ssim-rd / signhide / no-tskip / nr-intra=0 / nr-inter=0 / no-constrained-intra / strong-intra-smoothing / max-merge=2 / limit-refs=3 / no-limit-modes / me=1 / subme=2 / merange=57 / temporal-mvp / weightp / weightb / analyze-src-pics / deblock=0:0 / sao / sao-non-deblock / rd=3 / no-early-skip / rskip / no-fast-intra / no-tskip-fast / no-cu-lossless / b-intra / no-splitrd-skip / rdpenalty=0 / psy-rd=0.00 / psy-rdoq=0.00 / no-rd-refine / no-lossless / cbqpoffs=0 / crqpoffs=0 / rc=abr / bitrate=6000 / qcomp=0.60 / qpstep=4 / stats-write=0 / stats-read=2 / cplxblur=20.0 / qblur=0.5 / vbv-maxrate=12000 / vbv-bufsize=24000 / vbv-init=0.9 / ipratio=1.40 / pbratio=1.30 / aq-mode=3 / aq-strength=1.00 / cutree / zone-count=0 / no-strict-cbr / qg-size=32 / no-rc-grain / qpmax=69 / qpmin=0 / no-const-vbv / sar=0 / overscan=0 / videoformat=5 / range=0 / colorprim=2 / transfer=2 / colormatrix=2 / chromaloc=0 / display-window=0 / max-cll=0,0 / min-luma=0 / max-luma=1023 / log2-max-poc-lsb=8 / vui-timing-info / vui-hrd-info / slices=1 / no-opt-qp-pps / no-opt-ref-list-length-pps / multi-pass-opt-rps / scenecut-bias=0.05 / no-opt-cu-delta-qp / no-aq-motion / no-hdr / no-hdr-opt / no-dhdr10-opt / no-idr-recovery-sei / analysis-reuse-level=10 / scale-factor=0 / refine-intra=0 / refine-inter=0 / refine-mv=0 / limit-sao / ctu-info=0 / no-lowpass-dct / refine-mv-type=0 / copy-pic=1 / max-ausize-factor=1.0 / no-dynamic-refine / no-single-sei
Default                                  : Yes
Forced                                   : No

Audio #1
ID                                       : 2
Format                                   : AAC
Format/Info                              : Advanced Audio Codec
Format profile                           : LC
Codec ID                                 : A_AAC
Duration                                 : 2 h 28 min
Bit rate                                 : 246 kb/s
Channel(s)                               : 6 channels
Channel positions                        : Front: L C R, Side: L R, LFE
Sampling rate                            : 48.0 kHz
Frame rate                               : 46.875 FPS (1024 spf)
Compression mode                         : Lossy
Delay relative to video                  : 9 ms
Stream size                              : 262 MiB (4%)
Language                                 : English
Default                                  : No
Forced                                   : No

Audio #2
ID                                       : 3
Format                                   : AAC
Format/Info                              : Advanced Audio Codec
Format profile                           : HE-AAC / LC
Codec ID                                 : A_AAC
Duration                                 : 2 h 28 min
Bit rate                                 : 210 kb/s
Channel(s)                               : 6 channels
Channel positions                        : Front: L C R, Side: L R, LFE
Sampling rate                            : 48.0 kHz / 24.0 kHz
Frame rate                               : 23.438 FPS (1024 spf)
Compression mode                         : Lossy
Delay relative to video                  : 40 ms
Stream size                              : 224 MiB (3%)
Title                                    : Commentary with actors Keir Dullea and Gary Lockwood
Language                                 : English
Default                                  : No
Forced                                   : No

Subtitle #1
ID                                       : 4
Format                                   : PGS
Muxing mode                              : zlib
Codec ID                                 : S_HDMV/PGS
Codec ID/Info                            : Picture based subtitle format used on BDs/HD-DVDs
Duration                                 : 2 h 17 min
Bit rate                                 : 15.1 kb/s
Count of elements                        : 1334
Stream size                              : 14.9 MiB (0%)
Language                                 : English
Default                                  : No
Forced                                   : No

Subtitle #2
ID                                       : 5
Format                                   : UTF-8
Codec ID                                 : S_TEXT/UTF8
Codec ID/Info                            : UTF-8 Plain Text
Duration                                 : 1 h 31 min
Bit rate                                 : 40 b/s
Count of elements                        : 641
Stream size                              : 26.8 KiB (0%)
Language                                 : English
Default                                  : No
Forced                                   : No

Subtitle #3
ID                                       : 6
Format                                   : UTF-8
Codec ID                                 : S_TEXT/UTF8
Codec ID/Info                            : UTF-8 Plain Text
Duration                                 : 2 h 17 min
Bit rate                                 : 28 b/s
Count of elements                        : 667
Stream size                              : 28.3 KiB (0%)
Language                                 : English
Default                                  : No
Forced                                   : No

Subtitle #4
ID                                       : 7
Format                                   : VobSub
Muxing mode                              : zlib
Codec ID                                 : S_VOBSUB
Codec ID/Info                            : Picture based subtitle format used on DVDs
Duration                                 : 2 h 20 min
Bit rate                                 : 3 524 b/s
Count of elements                        : 632
Stream size                              : 3.54 MiB (0%)
Language                                 : French
Default                                  : No
Forced                                   : No

Subtitle #5
ID                                       : 8
Format                                   : VobSub
Muxing mode                              : zlib
Codec ID                                 : S_VOBSUB
Codec ID/Info                            : Picture based subtitle format used on DVDs
Duration                                 : 2 h 20 min
Bit rate                                 : 4 873 b/s
Count of elements                        : 658
Stream size                              : 4.89 MiB (0%)
Language                                 : German
Default                                  : No
Forced                                   : No

Subtitle #6
ID                                       : 9
Format                                   : VobSub
Muxing mode                              : zlib
Codec ID                                 : S_VOBSUB
Codec ID/Info                            : Picture based subtitle format used on DVDs
Duration                                 : 2 h 20 min
Bit rate                                 : 4 487 b/s
Count of elements                        : 671
Stream size                              : 4.50 MiB (0%)
Language                                 : Italian
Default                                  : No
Forced                                   : No

Subtitle #7
ID                                       : 10
Format                                   : VobSub
Muxing mode                              : zlib
Codec ID                                 : S_VOBSUB
Codec ID/Info                            : Picture based subtitle format used on DVDs
Duration                                 : 2 h 20 min
Bit rate                                 : 3 936 b/s
Count of elements                        : 644
Stream size                              : 3.95 MiB (0%)
Language                                 : Spanish
Default                                  : No
Forced                                   : No

Subtitle #8
ID                                       : 11
Format                                   : VobSub
Muxing mode                              : zlib
Codec ID                                 : S_VOBSUB
Codec ID/Info                            : Picture based subtitle format used on DVDs
Duration                                 : 2 h 19 min
Bit rate                                 : 3 256 b/s
Count of elements                        : 450
Stream size                              : 3.25 MiB (0%)
Language                                 : Dutch
Default                                  : No
Forced                                   : No

Subtitle #9
ID                                       : 12
Format                                   : VobSub
Muxing mode                              : zlib
Codec ID                                 : S_VOBSUB
Codec ID/Info                            : Picture based subtitle format used on DVDs
Duration                                 : 2 h 20 min
Bit rate                                 : 3 261 b/s
Count of elements                        : 675
Stream size                              : 3.27 MiB (0%)
Language                                 : Chinese
Default                                  : No
Forced                                   : No

Subtitle #10
ID                                       : 13
Format                                   : VobSub
Muxing mode                              : zlib
Codec ID                                 : S_VOBSUB
Codec ID/Info                            : Picture based subtitle format used on DVDs
Duration                                 : 2 h 20 min
Bit rate                                 : 3 996 b/s
Count of elements                        : 663
Stream size                              : 4.01 MiB (0%)
Language                                 : Chinese
Default                                  : No
Forced                                   : No

Subtitle #11
ID                                       : 14
Format                                   : VobSub
Muxing mode                              : zlib
Codec ID                                 : S_VOBSUB
Codec ID/Info                            : Picture based subtitle format used on DVDs
Duration                                 : 2 h 20 min
Bit rate                                 : 3 194 b/s
Count of elements                        : 664
Stream size                              : 3.20 MiB (0%)
Language                                 : Korean
Default                                  : No
Forced                                   : No

Subtitle #12
ID                                       : 15
Format                                   : VobSub
Muxing mode                              : zlib
Codec ID                                 : S_VOBSUB
Codec ID/Info                            : Picture based subtitle format used on DVDs
Duration                                 : 2 h 20 min
Bit rate                                 : 3 559 b/s
Count of elements                        : 636
Stream size                              : 3.57 MiB (0%)
Language                                 : Spanish
Default                                  : No
Forced                                   : No

Subtitle #13
ID                                       : 16
Format                                   : VobSub
Muxing mode                              : zlib
Codec ID                                 : S_VOBSUB
Codec ID/Info                            : Picture based subtitle format used on DVDs
Duration                                 : 2 h 20 min
Bit rate                                 : 3 957 b/s
Count of elements                        : 655
Stream size                              : 3.97 MiB (0%)
Language                                 : Portuguese
Default                                  : No
Forced                                   : No

Subtitle #14
ID                                       : 17
Format                                   : VobSub
Muxing mode                              : zlib
Codec ID                                 : S_VOBSUB
Codec ID/Info                            : Picture based subtitle format used on DVDs
Duration                                 : 2 h 20 min
Bit rate                                 : 2 240 b/s
Count of elements                        : 640
Stream size                              : 2.25 MiB (0%)
Language                                 : Arabic
Default                                  : No
Forced                                   : No

Subtitle #15
ID                                       : 18
Format                                   : VobSub
Muxing mode                              : zlib
Codec ID                                 : S_VOBSUB
Codec ID/Info                            : Picture based subtitle format used on DVDs
Duration                                 : 2 h 20 min
Bit rate                                 : 3 841 b/s
Count of elements                        : 644
Stream size                              : 3.85 MiB (0%)
Language                                 : Croatian
Default                                  : No
Forced                                   : No

Subtitle #16
ID                                       : 19
Format                                   : VobSub
Muxing mode                              : zlib
Codec ID                                 : S_VOBSUB
Codec ID/Info                            : Picture based subtitle format used on DVDs
Duration                                 : 2 h 20 min
Bit rate                                 : 3 513 b/s
Count of elements                        : 662
Stream size                              : 3.52 MiB (0%)
Language                                 : Czech
Default                                  : No
Forced                                   : No

Subtitle #17
ID                                       : 20
Format                                   : VobSub
Muxing mode                              : zlib
Codec ID                                 : S_VOBSUB
Codec ID/Info                            : Picture based subtitle format used on DVDs
Duration                                 : 2 h 20 min
Bit rate                                 : 2 986 b/s
Count of elements                        : 387
Stream size                              : 3.00 MiB (0%)
Language                                 : Danish
Default                                  : No
Forced                                   : No

Subtitle #18
ID                                       : 21
Format                                   : VobSub
Muxing mode                              : zlib
Codec ID                                 : S_VOBSUB
Codec ID/Info                            : Picture based subtitle format used on DVDs
Duration                                 : 2 h 20 min
Bit rate                                 : 2 881 b/s
Count of elements                        : 375
Stream size                              : 2.89 MiB (0%)
Language                                 : Finnish
Default                                  : No
Forced                                   : No

Subtitle #19
ID                                       : 22
Format                                   : VobSub
Muxing mode                              : zlib
Codec ID                                 : S_VOBSUB
Codec ID/Info                            : Picture based subtitle format used on DVDs
Duration                                 : 2 h 20 min
Bit rate                                 : 3 533 b/s
Count of elements                        : 596
Stream size                              : 3.55 MiB (0%)
Language                                 : Greek
Default                                  : No
Forced                                   : No

Subtitle #20
ID                                       : 23
Format                                   : VobSub
Muxing mode                              : zlib
Codec ID                                 : S_VOBSUB
Codec ID/Info                            : Picture based subtitle format used on DVDs
Duration                                 : 2 h 20 min
Bit rate                                 : 2 576 b/s
Count of elements                        : 623
Stream size                              : 2.58 MiB (0%)
Language                                 : Hebrew
Default                                  : No
Forced                                   : No

Subtitle #21
ID                                       : 24
Format                                   : VobSub
Muxing mode                              : zlib
Codec ID                                 : S_VOBSUB
Codec ID/Info                            : Picture based subtitle format used on DVDs
Duration                                 : 2 h 20 min
Bit rate                                 : 3 827 b/s
Count of elements                        : 663
Stream size                              : 3.84 MiB (0%)
Language                                 : Hungarian
Default                                  : No
Forced                                   : No

Subtitle #22
ID                                       : 25
Format                                   : VobSub
Muxing mode                              : zlib
Codec ID                                 : S_VOBSUB
Codec ID/Info                            : Picture based subtitle format used on DVDs
Duration                                 : 2 h 20 min
Bit rate                                 : 2 957 b/s
Count of elements                        : 442
Stream size                              : 2.97 MiB (0%)
Language                                 : Norwegian Bokmal
Default                                  : No
Forced                                   : No

Subtitle #23
ID                                       : 26
Format                                   : VobSub
Muxing mode                              : zlib
Codec ID                                 : S_VOBSUB
Codec ID/Info                            : Picture based subtitle format used on DVDs
Duration                                 : 2 h 20 min
Bit rate                                 : 3 198 b/s
Count of elements                        : 641
Stream size                              : 3.21 MiB (0%)
Language                                 : Polish
Default                                  : No
Forced                                   : No

Subtitle #24
ID                                       : 27
Format                                   : VobSub
Muxing mode                              : zlib
Codec ID                                 : S_VOBSUB
Codec ID/Info                            : Picture based subtitle format used on DVDs
Duration                                 : 2 h 20 min
Bit rate                                 : 4 262 b/s
Count of elements                        : 646
Stream size                              : 4.28 MiB (0%)
Language                                 : Portuguese
Default                                  : No
Forced                                   : No

Subtitle #25
ID                                       : 28
Format                                   : VobSub
Muxing mode                              : zlib
Codec ID                                 : S_VOBSUB
Codec ID/Info                            : Picture based subtitle format used on DVDs
Duration                                 : 2 h 20 min
Bit rate                                 : 3 348 b/s
Count of elements                        : 639
Stream size                              : 3.36 MiB (0%)
Language                                 : Romanian
Default                                  : No
Forced                                   : No

Subtitle #26
ID                                       : 29
Format                                   : VobSub
Muxing mode                              : zlib
Codec ID                                 : S_VOBSUB
Codec ID/Info                            : Picture based subtitle format used on DVDs
Duration                                 : 2 h 20 min
Bit rate                                 : 4 303 b/s
Count of elements                        : 652
Stream size                              : 4.32 MiB (0%)
Language                                 : Russian
Default                                  : No
Forced                                   : No

Subtitle #27
ID                                       : 30
Format                                   : VobSub
Muxing mode                              : zlib
Codec ID                                 : S_VOBSUB
Codec ID/Info                            : Picture based subtitle format used on DVDs
Duration                                 : 2 h 20 min
Bit rate                                 : 2 680 b/s
Count of elements                        : 380
Stream size                              : 2.69 MiB (0%)
Language                                 : Swedish
Default                                  : No
Forced                                   : No

Subtitle #28
ID                                       : 31
Format                                   : VobSub
Muxing mode                              : zlib
Codec ID                                 : S_VOBSUB
Codec ID/Info                            : Picture based subtitle format used on DVDs
Duration                                 : 2 h 19 min
Bit rate                                 : 3 955 b/s
Count of elements                        : 664
Stream size                              : 3.95 MiB (0%)
Language                                 : Thai
Default                                  : No
Forced                                   : No

Subtitle #29
ID                                       : 32
Format                                   : VobSub
Muxing mode                              : zlib
Codec ID                                 : S_VOBSUB
Codec ID/Info                            : Picture based subtitle format used on DVDs
Duration                                 : 2 h 19 min
Bit rate                                 : 3 912 b/s
Count of elements                        : 643
Stream size                              : 3.91 MiB (0%)
Language                                 : Turkish
Default                                  : No
Forced                                   : No

Subtitle #30
ID                                       : 33
Format                                   : VobSub
Muxing mode                              : zlib
Codec ID                                 : S_VOBSUB
Codec ID/Info                            : Picture based subtitle format used on DVDs
Duration                                 : 2 h 24 min
Bit rate                                 : 10.9 kb/s
Count of elements                        : 1648
Stream size                              : 11.2 MiB (0%)
Language                                 : Chinese
Default                                  : No
Forced                                   : No

Subtitle #31
ID                                       : 34
Format                                   : VobSub
Muxing mode                              : zlib
Codec ID                                 : S_VOBSUB
Codec ID/Info                            : Picture based subtitle format used on DVDs
Duration                                 : 1 h 52 min
Bit rate                                 : 2 236 b/s
Count of elements                        : 851
Stream size                              : 1.80 MiB (0%)
Language                                 : Japanese
Default                                  : No
Forced                                   : No

Subtitle #32
ID                                       : 35
Format                                   : VobSub
Muxing mode                              : zlib
Codec ID                                 : S_VOBSUB
Codec ID/Info                            : Picture based subtitle format used on DVDs
Duration                                 : 2 h 24 min
Bit rate                                 : 9 108 b/s
Count of elements                        : 1617
Stream size                              : 9.41 MiB (0%)
Language                                 : Japanese
Default                                  : No
Forced                                   : No

Subtitle #33
ID                                       : 36
Format                                   : UTF-8
Codec ID                                 : S_TEXT/UTF8
Codec ID/Info                            : UTF-8 Plain Text
Duration                                 : 1 h 57 min
Bit rate                                 : 38 b/s
Count of elements                        : 651
Stream size                              : 32.8 KiB (0%)
Language                                 : Vietnamese
Default                                  : No
Forced                                   : No

Menu
00:00:00.000                             : :Chapter 1
00:02:55.175                             : :Chapter 2
00:04:37.110                             : :Chapter 3
00:11:37.863                             : :Chapter 4
00:16:55.889                             : :Chapter 5
00:19:50.939                             : :Chapter 6
00:25:27.359                             : :Chapter 7
00:27:36.071                             : :Chapter 8
00:29:27.432                             : :Chapter 9
00:33:44.772                             : :Chapter 10
00:41:06.630                             : :Chapter 11
00:45:35.399                             : :Chapter 12
00:50:54.551                             : :Chapter 13
00:54:39.943                             : :Chapter 14
00:58:31.633                             : :Chapter 15
01:03:53.955                             : :Chapter 16
01:06:03.209                             : :Chapter 17
01:12:08.574                             : :Chapter 18
01:18:49.766                             : :Chapter 19
01:22:59.432                             : :Chapter 20
01:27:00.131                             : :Chapter 21
01:27:47.262                             : :Chapter 22
01:30:05.733                             : :Chapter 23
01:32:48.771                             : :Chapter 24
01:38:33.490                             : :Chapter 25
01:40:44.997                             : :Chapter 26
01:45:33.452                             : :Chapter 27
01:49:39.447                             : :Chapter 28
01:55:17.577                             : :Chapter 29
01:57:04.017                             : :Chapter 30
02:01:26.112                             : :Chapter 31
02:11:31.300                             : :Chapter 32
02:17:55.517                             : :Chapter 33
02:20:31.423                             : :Chapter 34

Source Information
Release: 2001.A.Space.Odyssey.1968.2160p.BluRay.x265.10bit.SDR.DTS-HD.MA.5.1-SWTYBLZ.mkv (41.20 GBs)

Category:Movies > HEVC/x265
Lang:English  English
Total Size:7.11 GB
Info Hash:b626198b2589a7080dc5f0fb54a205bff674302b
Added By:UTR
Date Added:04-12-2018 14:27:20

Files

File List: 
 File Size
2001 A Space Odyssey 1968 (2160p x265 10bit S90 Joy).mkv6.78 GB
Encoded by JoyBell (UTR).txt2.73 kB
Extras/2001 The Making of a Myth.mkv87 MB
Extras/A Look Behind the Future.mkv42 MB
Extras/FX and Early Conceptual Artwork.mkv22 MB
Extras/Kubrick Interview by Jeremy Bernstein 1966 Audio Only.mkv43 MB
Extras/Look Stanley Kubrick.mkv5 MB
Extras/Standing on the Shoulders of Kubrick.mkv46 MB
Extras/Vision of a Future Passed The Prophecy of 2001.mkv49 MB
Extras/What is Out There.mkv47 MB
folder.jpg16.28 kB
How to play HEVC (THIS FILE).txt3.42 kB
Ninite K-Lite Codecs Unattended Silent Installer and Updater.website561.00 B



Comments

There are currently no comments. Be the first one to write something !