kgf sarkar Manikarnika star trek discovery thakrey Xxx kedarnath thackeray malayalam the accidental prime minister supernatural evo aquaman telugu odiyan the flash why cheat india great british bake off s09e10 vikings tushy 18.12 1080p.mp4-ktr charlie chaplin 2 1080P Hindi mirzapur ettv mr majnu the grand tour 2018 ita Adanga Maru Tin Star etmovies dtone uri EVO malayalam 2018 movies AQUAMAN ita Bumblebee ethd ITA zero etrg venom f2 1080p 2018 maari 2 Game Of Thrones viswasam TamilRockers Kannada simmba Kannada ddr simbha tushyraw 1080p.mp4-ktr mortal engines simba petta DTOne uri the surgical strike kung fu the legend Young justice tamil robot 2.0 it brazzers it 2017 2.0 thakre Njan Prakashan glass fgt bohemian rhapsody Star Trek Discovery S02E02 
Warning! Use a VPN When Downloading Torrents!
Your IP Address is 34.228.115.216. Location is United States
Your Internet Provider is tracking your torrent activity! Hide your IP ADDRESS with a VPN!
We strongly recommend using ExpressVPN to anonymize your torrenting. 30 Day Money Back Guarantee!
Try it Now!
ETTV Recommended TV Shows
Doom.Patrol.S01E02.WEBRip.x264-PBS[ettv] torrent
Strike.Back.S07E05.WEBRip.x264-PBS[ettv] torrent
Proven.Innocent.S01E02.WEB.x264-TBS[ettv] torrent
MacGyver.2016.S03E16.WEB.x264-TBS[ettv] torrent
Hawaii.Five-0.2010.S09E16.WEB.x264-TBS[ettv] torrent
The.Blacklist.S06E08.WEB.x264-TBS[ettv] torrent

ETTV Recommended SD
Dirty.Dealing.2019.HDRip.XviD.AC3-EVO torrent
Trading.Paint.2019.HDRip.XViD-ETRG torrent
Vox.Lux.2018.BRRip.XViD-ETRG torrent
Paddleton.2019.WEBRip.XviD-DiNGO[EtMovies] torrent

ETTV Recommended HD
Instant.Family.2018.1080p.BluRay.x264-SPARKS[EtHD] torrent
Iceman The Time Traveller 2018.Multi.1080p.Blu-ray.HEVC.DTS-HDMA.5.1-DTOne torrent
Serenity.2019.1080p.BluRay.HEVC.DTS-HD.MA.5.1-DTOne torrent
The Possession of Hannah Grace 2018 Multi.BluRay 1080p HEVC DTS-HD MA5.1-DTOne torrent

ETTV Recommended UHD
Ralph.Breaks.the.Internet.2018.UHD.2160p.BluRay.x265.HDR.Atmos.7.1-DTOne torrent
Mary.Queen.of.Scots.2018.MULTi.UHD.BluRay.2160p.x265.HDR.Atmos.7.1-DTOne torrent
The.Little.Mermaid.1989.UHD.BluRay.2160p.x265.HDR.Atmos.7.1-DTOne torrent
Fantastic.Beasts.The.Crimes.Of.Grindelwald.2018.MULTI.2160p.HDR.UHDRip.DD.5.1-DTOne torrent

ETTV Recommended Cam
What Men Want 2019 HDCAM x264 AC3 MP4KiNG torrent
The.Prodigy.2019..HDCAM.XViD.AC3-ETRG torrent
Run the Race 2019 720p HDCAM-1XBET torrent
Alita Battle Angel 2019 HDTC x264 AC3-ETRG torrent

ETTV Recommended Foreign
Monstrum 2018 BluRay 1080p TrueHD 5.1 x264-MTeam[EtHD] torrent
Total.Dhamaal.(2019).Untouch.Pre.DVD-DTOne torrent
Yamakasi (2001) x264 720p UNCUT WEB-DL Eng Subs {Dual Audio} [Hindi ORG DD 2.0 + French 2.0] Exclusive By DREDD torrent
Petta (2019) WebDL AVC AAC 2.0 - DTOne torrent


Download Torrent "Black-ish S05E06 (1080p AMZN WEB-DL x265 HEVC 10bit AC3 5.1 Qman) [UTR]"

IMDB Details
Description:

N/A

Genre:

N/A

Download Torrent (Magnet)
Download Torrent (File)
Seeds: 70
Leechers: 64
Completed: 1,387 
Last Checked: 04-12-2018 14:33:29


Loading...
Details
Title:Black-ish S05E06 (1080p AMZN WEB-DL x265 HEVC 10bit AC3 5.1 Qman) [UTR]
Description:
[img="https://i.postimg.cc/hjkyHjgc/pirate-shark-banner-with-forum-site-address-www-imagesplitter-n.png" alt=""][img="https://i.postimg.cc/CLHPQS2p/pirate-shark-banner-with-forum-site-address-www-imagesplitter-n.png" alt=""]
[img="https://i.postimg.cc/13vWyMPW/pirate-shark-banner-with-forum-site-address-www-imagesplitter-n.png" alt=""][img="https://i.postimg.cc/yNWLx987/pirate-shark-banner-with-forum-site-address-www-imagesplitter-n.png" alt=""]




Media Information
General
Format                                   : Matroska
Format version                           : Version 4 / Version 2
File size                                : 562 MiB
Duration                                 : 21 min 29 s
Overall bit rate                         : 3 658 kb/s
Encoded date                             : UTC 2018-12-03 17:50:54
Writing application                      : mkvmerge v28.0.0 ('Voice In My Head') 64-bit
Writing library                          : libebml v1.3.6 + libmatroska v1.4.9

Video
ID                                       : 1
Format                                   : HEVC
Format/Info                              : High Efficiency Video Coding
Format profile                           : Main [email protected]@Main
Codec ID                                 : V_MPEGH/ISO/HEVC
Duration                                 : 21 min 29 s
Bit rate                                 : 3 016 kb/s
Width                                    : 1 920 pixels
Height                                   : 1 080 pixels
Display aspect ratio                     : 16:9
Frame rate mode                          : Constant
Frame rate                               : 23.976 (24000/1001) FPS
Color space                              : YUV
Chroma subsampling                       : 4:2:0
Bit depth                                : 10 bits
Bits/(Pixel*Frame)                       : 0.061
Stream size                              : 464 MiB (82%)
Writing library                          : x265 2.9+8-27d8424c799d:[Windows][MSVC 1915][64 bit] 10bit
Encoding settings                        : cpuid=1111039 / frame-threads=2 / numa-pools=4 / wpp / no-pmode / no-pme / no-psnr / no-ssim / log-level=2 / input-csp=1 / input-res=1920x1080 / interlace=0 / total-frames=30915 / level-idc=0 / high-tier=1 / uhd-bd=0 / ref=4 / no-allow-non-conformance / no-repeat-headers / annexb / no-aud / no-hrd / info / hash=0 / no-temporal-layers / open-gop / min-keyint=23 / keyint=250 / gop-lookahead=0 / bframes=8 / b-adapt=2 / b-pyramid / bframe-bias=0 / rc-lookahead=50 / lookahead-slices=4 / scenecut=40 / radl=0 / no-intra-refresh / ctu=64 / min-cu-size=8 / no-rect / no-amp / max-tu-size=32 / tu-inter-depth=1 / tu-intra-depth=1 / limit-tu=0 / rdoq-level=2 / dynamic-rd=0.00 / no-ssim-rd / signhide / no-tskip / nr-intra=0 / nr-inter=0 / no-constrained-intra / no-strong-intra-smoothing / max-merge=3 / limit-refs=3 / limit-modes / me=3 / subme=3 / merange=57 / temporal-mvp / weightp / no-weightb / no-analyze-src-pics / deblock=1:1 / no-sao / no-sao-non-deblock / rd=4 / no-early-skip / no-rskip / no-fast-intra / no-tskip-fast / no-cu-lossless / no-b-intra / no-splitrd-skip / rdpenalty=0 / psy-rd=1.40 / psy-rdoq=1.00 / no-rd-refine / no-lossless / cbqpoffs=0 / crqpoffs=0 / rc=crf / crf=21.0 / qcomp=0.60 / qpstep=4 / stats-write=0 / stats-read=0 / ipratio=1.40 / pbratio=1.30 / aq-mode=2 / aq-strength=1.00 / cutree / zone-count=0 / no-strict-cbr / qg-size=32 / no-rc-grain / qpmax=69 / qpmin=0 / no-const-vbv / sar=0 / overscan=0 / videoformat=5 / range=0 / colorprim=2 / transfer=2 / colormatrix=2 / chromaloc=0 / display-window=0 / max-cll=0,0 / min-luma=0 / max-luma=1023 / log2-max-poc-lsb=8 / vui-timing-info / vui-hrd-info / slices=1 / no-opt-qp-pps / no-opt-ref-list-length-pps / no-multi-pass-opt-rps / scenecut-bias=0.05 / no-opt-cu-delta-qp / no-aq-motion / no-hdr / no-hdr-opt / no-dhdr10-opt / no-idr-recovery-sei / analysis-reuse-level=5 / scale-factor=0 / refine-intra=0 / refine-inter=0 / refine-mv=0 / no-limit-sao / ctu-info=0 / no-lowpass-dct / refine-mv-type=0 / copy-pic=1 / max-ausize-factor=1.0 / no-dynamic-refine / no-single-sei
Language                                 : English
Default                                  : Yes
Forced                                   : No

Audio
ID                                       : 2
Format                                   : E-AC-3
Format/Info                              : Enhanced Audio Coding 3
Format settings, Endianness              : Big
Codec ID                                 : A_EAC3
Duration                                 : 21 min 29 s
Bit rate mode                            : Constant
Bit rate                                 : 640 kb/s
Channel(s)                               : 6 channels
Channel positions                        : Front: L C R, Side: L R, LFE
Sampling rate                            : 48.0 kHz
Frame rate                               : 187.500 FPS (256 spf)
Compression mode                         : Lossy
Stream size                              : 98.4 MiB (17%)
Language                                 : English
Default                                  : Yes
Forced                                   : No

Subtitle
ID                                       : 3
Format                                   : UTF-8
Codec ID                                 : S_TEXT/UTF8
Codec ID/Info                            : UTF-8 Plain Text
Duration                                 : 21 min 19 s
Bit rate                                 : 109 b/s
Count of elements                        : 596
Stream size                              : 17.1 KiB (0%)
Language                                 : English
Default                                  : Yes
Forced                                   : No

Source Information
Release: Unknown Source/NO-GROUP

Category:TV > HEVC/x265
Lang:English  English
Total Size:562 MB
Info Hash:c4f822757033ed68c54e95c23a6ab6794182cda6
Added By:UTR
Date Added:04-12-2018 14:33:23

Files

File List: 
 File Size
black-ish.S05E06.1080p.AMZN.WEB-DL.x265.10bit.EAC3.6.0-Qman[UTR].mkv562 MB



Comments

There are currently no comments. Be the first one to write something !