ettv 2017 1080p YIFY supergirl ita 2018 1080p vikings s05e13 ddr hindi tushy 18.12 1080p.mp4-ktr queen mp3 Aquaman Travelers bohemian rhapsody christmas Ncis wwe modern family dtone midnight texas homeland arrow etrg destruction mp3 EtHD DTOne it bbc ethd 1080p 2018 fortitude 0 2 it 2017 nfl CBC MASSEY LECTURES 2017 gold rush supernatural nightflyers star trek discovery español fgt venom 2018 ITA AVENGERS Vikings hunter killer etmovies the big bang theory Carolina Moon 1994 Z nation 1080p YIFY big bang theory XXX the flash titans s01e10 the walking dead legalporno 2018.12 game of thrones ita 2160p Age of the Living Dead 720p 2018 1080p YIFY mircrew tushyraw 1080p.mp4-ktr blue my mind evo 1 Titans Stonehearst.Asylum.Eliza.Graves.2014.BDRip.AC3.ITA 2018 movies first man 
Warning! Use a VPN When Downloading Torrents!
Your IP Address is 3.80.177.176. Location is United States
Your Internet Provider is tracking your torrent activity! Hide your IP ADDRESS with a VPN!
We strongly recommend using ExpressVPN to anonymize your torrenting. 30 Day Money Back Guarantee!
Try it Now!
ETTV Recommended TV Shows
Outlander.S04E07.WEB.H264-MEMENTO[ettv] torrent
Ray.Donovan.S06E08.WEBRip.x264-PBS[ettv] torrent
Counterpart.S02E02.WEB.H264-MEMENTO[ettv] torrent
Saturday.Night.Live.S44E09.Matt.Damon.WEB.x264-TBS[ettv] torrent

ETTV Recommended Xvid
Hunter Killer.2018.Cropped.HC.HDRip.XViD-ETRG torrent
The.House.with.a.Clock.in.Its.Walls.2018.BRRip.XViD-ETRG torrent
Fantastic.Beasts.The.Crimes.of.Grindelwald.2018.HC.HDRip.XviD.AC3-EVO torrent
Bird.Box.2018.HDRip.XviD.AC3-EVO[EtMovies] torrent

ETTV Recommended HD
A.Simple.Favor.2018.1080p.BluRay.HEVC.DTS-HD.MA.5.1-DTOne torrent
Under.the.Silver.Lake.2018.MULTi.Bluray.1080p.HEVC.DTS-HDMA.5.1-DTOne torrent
Fantastic.Beasts.The.Crimes.of.Grindelwald.2018.1080p.HC.HDRip.X264.AC3-EVO[EtHD] torrent
Bird.Box.2018.NF.1080p.WEB-DL.H264.AC3-EVO[EtHD] torrent

ETTV Recommended UHD
Mission Impossible - Fallout.2018.IMAX.Muti.UHD.2160p.Bluray.x265.Atmos.7.1[En+Hi+]-DTOne torrent
Venom 2018.MULTi.UHD.2160p.BluRay.x265.HDR.Atmos.7.1-DTOne torrent
The Nun 2018 MULTi.UHD.2160p.Bluray.x265.HDR.Atmos.7.1-DTOne torrent
River Runs Red 2018.UHD.2160p.Bluray.x265.HDR.DTS-HDMA..1-DTOne torrent

ETTV Recommended Cam
Spider-Man Into the Spider-Verse 2018 NEW HDCAM.XViD.AC3-ETRG torrent
Aquaman.2018.NEW 2018 HDCAM.x264.AC3-ETRG torrent
Bumblebee 2018 NEW SOURCE 720p HDCAM ENG-1XBET torrent
Instant.Family.2018.HDCAM.x264.AC3-ETRG torrent

ETTV Recommended Foreign
Helicopter.Eela.(2018).1080p.WEB-DL.AAC.DTOne torrent
Andhadhun.(2018).1080p.Web-DL.DDP.5.1.ESub-DTOne torrent
Hello Naan Pei Pesuren (2016) 720p UNCUT HDRip x264 [Dual Audio] [Hindi DD 2.0 - Tamil 2.0] Exclusive By -=!Dr.STAR!=- torrent
Kaatrin Mozhi (2018) [TAMIL - 720p - WEB HDRip - x264 - DD 5.1 - ESub - 2GB] - MAZE torrent


Download Torrent "Hawaii Five-0 S09E09 (1080p AMZN WEB-DL x265 HEVC 10bit AC3 5.1 Qman) [UTR]"

IMDB Details
Description:

N/A

Genre:

N/A

Download Torrent (Magnet)
Download Torrent (File)
Seeds: 153
Leechers: 47
Completed: 2,323 
Last Checked: 04-12-2018 14:37:53


Loading...
Details
Title:Hawaii Five-0 S09E09 (1080p AMZN WEB-DL x265 HEVC 10bit AC3 5.1 Qman) [UTR]
Description:






Media Information
General
Format                                   : Matroska
Format version                           : Version 4 / Version 2
File size                                : 1.72 GiB
Duration                                 : 43 min 24 s
Overall bit rate                         : 5 661 kb/s
Encoded date                             : UTC 2018-12-03 17:49:49
Writing application                      : mkvmerge v28.0.0 ('Voice In My Head') 64-bit
Writing library                          : libebml v1.3.6 + libmatroska v1.4.9

Video
ID                                       : 1
Format                                   : HEVC
Format/Info                              : High Efficiency Video Coding
Format profile                           : Main [email protected]@Main
Codec ID                                 : V_MPEGH/ISO/HEVC
Duration                                 : 43 min 24 s
Bit rate                                 : 5 019 kb/s
Width                                    : 1 920 pixels
Height                                   : 1 080 pixels
Display aspect ratio                     : 16:9
Frame rate mode                          : Constant
Frame rate                               : 23.976 (24000/1001) FPS
Color space                              : YUV
Chroma subsampling                       : 4:2:0
Bit depth                                : 10 bits
Bits/(Pixel*Frame)                       : 0.101
Stream size                              : 1.52 GiB (89%)
Writing library                          : x265 2.9+8-27d8424c799d:[Windows][MSVC 1915][64 bit] 10bit
Encoding settings                        : cpuid=1111039 / frame-threads=2 / numa-pools=4 / wpp / no-pmode / no-pme / no-psnr / no-ssim / log-level=2 / input-csp=1 / input-res=1920x1080 / interlace=0 / total-frames=62439 / level-idc=0 / high-tier=1 / uhd-bd=0 / ref=4 / no-allow-non-conformance / no-repeat-headers / annexb / no-aud / no-hrd / info / hash=0 / no-temporal-layers / open-gop / min-keyint=23 / keyint=250 / gop-lookahead=0 / bframes=8 / b-adapt=2 / b-pyramid / bframe-bias=0 / rc-lookahead=50 / lookahead-slices=4 / scenecut=40 / radl=0 / no-intra-refresh / ctu=64 / min-cu-size=8 / no-rect / no-amp / max-tu-size=32 / tu-inter-depth=1 / tu-intra-depth=1 / limit-tu=0 / rdoq-level=2 / dynamic-rd=0.00 / no-ssim-rd / signhide / no-tskip / nr-intra=0 / nr-inter=0 / no-constrained-intra / no-strong-intra-smoothing / max-merge=3 / limit-refs=3 / limit-modes / me=3 / subme=3 / merange=57 / temporal-mvp / weightp / no-weightb / no-analyze-src-pics / deblock=1:1 / no-sao / no-sao-non-deblock / rd=4 / no-early-skip / no-rskip / no-fast-intra / no-tskip-fast / no-cu-lossless / no-b-intra / no-splitrd-skip / rdpenalty=0 / psy-rd=1.40 / psy-rdoq=1.00 / no-rd-refine / no-lossless / cbqpoffs=0 / crqpoffs=0 / rc=crf / crf=21.0 / qcomp=0.60 / qpstep=4 / stats-write=0 / stats-read=0 / ipratio=1.40 / pbratio=1.30 / aq-mode=2 / aq-strength=1.00 / cutree / zone-count=0 / no-strict-cbr / qg-size=32 / no-rc-grain / qpmax=69 / qpmin=0 / no-const-vbv / sar=0 / overscan=0 / videoformat=5 / range=0 / colorprim=2 / transfer=2 / colormatrix=2 / chromaloc=0 / display-window=0 / max-cll=0,0 / min-luma=0 / max-luma=1023 / log2-max-poc-lsb=8 / vui-timing-info / vui-hrd-info / slices=1 / no-opt-qp-pps / no-opt-ref-list-length-pps / no-multi-pass-opt-rps / scenecut-bias=0.05 / no-opt-cu-delta-qp / no-aq-motion / no-hdr / no-hdr-opt / no-dhdr10-opt / no-idr-recovery-sei / analysis-reuse-level=5 / scale-factor=0 / refine-intra=0 / refine-inter=0 / refine-mv=0 / no-limit-sao / ctu-info=0 / no-lowpass-dct / refine-mv-type=0 / copy-pic=1 / max-ausize-factor=1.0 / no-dynamic-refine / no-single-sei
Language                                 : English
Default                                  : Yes
Forced                                   : No

Audio
ID                                       : 2
Format                                   : E-AC-3
Format/Info                              : Enhanced Audio Coding 3
Format settings, Endianness              : Big
Codec ID                                 : A_EAC3
Duration                                 : 43 min 24 s
Bit rate mode                            : Constant
Bit rate                                 : 640 kb/s
Channel(s)                               : 6 channels
Channel positions                        : Front: L C R, Side: L R, LFE
Sampling rate                            : 48.0 kHz
Frame rate                               : 187.500 FPS (256 spf)
Compression mode                         : Lossy
Stream size                              : 199 MiB (11%)
Language                                 : English
Default                                  : Yes
Forced                                   : No

Subtitle
ID                                       : 3
Format                                   : UTF-8
Codec ID                                 : S_TEXT/UTF8
Codec ID/Info                            : UTF-8 Plain Text
Duration                                 : 42 min 54 s
Bit rate                                 : 112 b/s
Count of elements                        : 988
Stream size                              : 35.5 KiB (0%)
Language                                 : English
Default                                  : Yes
Forced                                   : No

Source Information
Release: Unknown Source/NO-GROUP

Category:TV > HEVC/x265
Lang:English  English
Total Size:1.72 GB
Info Hash:5c48328007a8b7e89d05c09bc9075760985b0260
Added By:UTR
Date Added:04-12-2018 14:37:47

Files

File List: 
 File Size
Hawaii.Five-0.S09E09.1080p.AMZN.WEB-DL.x265.10bit.EAC3.6.0-Qman[UTR].mkv1.72 GB



Comments

There are currently no comments. Be the first one to write something !