ettv 2017 1080p YIFY supergirl ita 2018 1080p vikings s05e13 ddr hindi tushy 18.12 1080p.mp4-ktr queen mp3 Aquaman Travelers bohemian rhapsody christmas Ncis wwe modern family dtone midnight texas homeland arrow etrg destruction mp3 EtHD DTOne it bbc ethd 1080p 2018 fortitude 0 2 it 2017 nfl CBC MASSEY LECTURES 2017 gold rush supernatural nightflyers star trek discovery español fgt venom 2018 ITA AVENGERS Vikings hunter killer etmovies the big bang theory Carolina Moon 1994 Z nation 1080p YIFY big bang theory XXX the flash titans s01e10 the walking dead legalporno 2018.12 game of thrones ita 2160p Age of the Living Dead 720p 2018 1080p YIFY mircrew tushyraw 1080p.mp4-ktr blue my mind evo 1 Titans Stonehearst.Asylum.Eliza.Graves.2014.BDRip.AC3.ITA 2018 movies first man 
Warning! Use a VPN When Downloading Torrents!
Your IP Address is 3.80.177.176. Location is United States
Your Internet Provider is tracking your torrent activity! Hide your IP ADDRESS with a VPN!
We strongly recommend using ExpressVPN to anonymize your torrenting. 30 Day Money Back Guarantee!
Try it Now!
ETTV Recommended TV Shows
Outlander.S04E07.WEB.H264-MEMENTO[ettv] torrent
Ray.Donovan.S06E08.WEBRip.x264-PBS[ettv] torrent
Counterpart.S02E02.WEB.H264-MEMENTO[ettv] torrent
Saturday.Night.Live.S44E09.Matt.Damon.WEB.x264-TBS[ettv] torrent

ETTV Recommended Xvid
Hunter Killer.2018.Cropped.HC.HDRip.XViD-ETRG torrent
Backtrace.2018.HDRip.XviD.AC3-EVO torrent
The.House.with.a.Clock.in.Its.Walls.2018.BRRip.XViD-ETRG torrent
Fantastic.Beasts.The.Crimes.of.Grindelwald.2018.HC.HDRip.XviD.AC3-EVO torrent

ETTV Recommended HD
A.Simple.Favor.2018.1080p.BluRay.HEVC.DTS-HD.MA.5.1-DTOne torrent
Under.the.Silver.Lake.2018.MULTi.Bluray.1080p.HEVC.DTS-HDMA.5.1-DTOne torrent
Fantastic.Beasts.The.Crimes.of.Grindelwald.2018.1080p.HC.HDRip.X264.AC3-EVO[EtHD] torrent
Bird.Box.2018.NF.1080p.WEB-DL.H264.AC3-EVO[EtHD] torrent

ETTV Recommended UHD
Mission Impossible - Fallout.2018.IMAX.Muti.UHD.2160p.Bluray.x265.Atmos.7.1[En+Hi+]-DTOne torrent
Venom 2018.MULTi.UHD.2160p.BluRay.x265.HDR.Atmos.7.1-DTOne torrent
The Nun 2018 MULTi.UHD.2160p.Bluray.x265.HDR.Atmos.7.1-DTOne torrent
River Runs Red 2018.UHD.2160p.Bluray.x265.HDR.DTS-HDMA..1-DTOne torrent

ETTV Recommended Cam
Spider-Man Into the Spider-Verse 2018 NEW HDCAM.XViD.AC3-ETRG torrent
Aquaman.2018.NEW 2018 HDCAM.x264.AC3-ETRG torrent
Bumblebee 2018 NEW SOURCE 720p HDCAM ENG-1XBET torrent
Instant.Family.2018.HDCAM.x264.AC3-ETRG torrent

ETTV Recommended Foreign
Helicopter.Eela.(2018).1080p.WEB-DL.AAC.DTOne torrent
Andhadhun.(2018).1080p.Web-DL.DDP.5.1.ESub-DTOne torrent
Hello Naan Pei Pesuren (2016) 720p UNCUT HDRip x264 [Dual Audio] [Hindi DD 2.0 - Tamil 2.0] Exclusive By -=!Dr.STAR!=- torrent
Kaatrin Mozhi (2018) [TAMIL - 720p - WEB HDRip - x264 - DD 5.1 - ESub - 2GB] - MAZE torrent


Download Torrent "Friends (1994) Season 03 S03 (1080p BluRay x265 HEVC 10bit AAC 5.1 Joy) [UT..."

IMDB Details
Description:

Follows the personal and professional lives of six twenty to thirty-something-year-old friends living in Manhattan.

Genre:

Comedy, Romance

Download Torrent (Magnet)
Download Torrent (File)
Seeds: 110
Leechers: 72
Completed: 1,991 
Last Checked: 06-12-2018 10:54:56


Loading...
Details
Title:Friends (1994) Season 03 S03 (1080p BluRay x265 HEVC 10bit AAC 5.1 Joy) [UT...
Description:






Media Information
General
Format                                   : Matroska
Format version                           : Version 4 / Version 2
File size                                : 243 MiB
Duration                                 : 22 min 43 s
Overall bit rate                         : 1 495 kb/s
Movie name                               : Friends S03E01 The One with the Princess Leia Fantasy  (1080p x265 10bit Joy)
Encoded date                             : UTC 2018-12-05 06:16:06
Writing application                      : mkvmerge v24.0.0 ('Beyond The Pale') 64-bit
Writing library                          : libebml v1.3.6 + libmatroska v1.4.9
Writing frontend                         : StaxRip v1.8.2.0, A JoyBell Encode

Video
ID                                       : 1
Format                                   : HEVC
Format/Info                              : High Efficiency Video Coding
Format profile                           : Main [email protected]@Main
Codec ID                                 : V_MPEGH/ISO/HEVC
Duration                                 : 22 min 42 s
Bit rate                                 : 1 200 kb/s
Width                                    : 1 920 pixels
Height                                   : 1 080 pixels
Display aspect ratio                     : 16:9
Frame rate mode                          : Constant
Frame rate                               : 23.976 (24000/1001) FPS
Color space                              : YUV
Chroma subsampling                       : 4:2:0
Bit depth                                : 10 bits
Bits/(Pixel*Frame)                       : 0.024
Stream size                              : 195 MiB (80%)
Writing library                          : x265 2.8+69-856f056d392e:[Windows][MSVC 1915][64 bit] 10bit
Encoding settings                        : cpuid=1111039 / frame-threads=3 / numa-pools=8 / wpp / no-pmode / no-pme / no-psnr / ssim / log-level=2 / input-csp=1 / input-res=1920x1080 / interlace=0 / total-frames=32665 / level-idc=0 / high-tier=1 / uhd-bd=0 / ref=4 / no-allow-non-conformance / no-repeat-headers / annexb / no-aud / no-hrd / info / hash=0 / no-temporal-layers / open-gop / min-keyint=23 / keyint=250 / gop-lookahead=0 / bframes=4 / b-adapt=2 / b-pyramid / bframe-bias=0 / rc-lookahead=80 / lookahead-slices=4 / scenecut=40 / radl=0 / no-intra-refresh / ctu=64 / min-cu-size=8 / no-rect / no-amp / max-tu-size=32 / tu-inter-depth=1 / tu-intra-depth=1 / limit-tu=0 / rdoq-level=2 / dynamic-rd=0.00 / ssim-rd / signhide / no-tskip / nr-intra=0 / nr-inter=0 / no-constrained-intra / strong-intra-smoothing / max-merge=3 / limit-refs=3 / limit-modes / me=3 / subme=3 / merange=57 / temporal-mvp / weightp / no-weightb / no-analyze-src-pics / deblock=0:0 / sao / no-sao-non-deblock / rd=4 / no-early-skip / rskip / no-fast-intra / no-tskip-fast / no-cu-lossless / no-b-intra / no-splitrd-skip / rdpenalty=0 / psy-rd=0.00 / psy-rdoq=1.00 / no-rd-refine / no-lossless / cbqpoffs=0 / crqpoffs=0 / rc=abr / bitrate=1200 / qcomp=0.60 / qpstep=4 / stats-write=0 / stats-read=2 / cplxblur=20.0 / qblur=0.5 / vbv-maxrate=2400 / vbv-bufsize=9000 / vbv-init=0.9 / ipratio=1.40 / pbratio=1.30 / aq-mode=2 / aq-strength=0.80 / cutree / zone-count=0 / no-strict-cbr / qg-size=32 / no-rc-grain / qpmax=69 / qpmin=0 / no-const-vbv / sar=0 / overscan=0 / videoformat=5 / range=0 / colorprim=2 / transfer=2 / colormatrix=2 / chromaloc=0 / display-window=0 / max-cll=0,0 / min-luma=0 / max-luma=1023 / log2-max-poc-lsb=8 / vui-timing-info / vui-hrd-info / slices=1 / no-opt-qp-pps / no-opt-ref-list-length-pps / multi-pass-opt-rps / scenecut-bias=0.05 / no-opt-cu-delta-qp / no-aq-motion / no-hdr / no-hdr-opt / no-dhdr10-opt / no-idr-recovery-sei / analysis-reuse-level=10 / scale-factor=0 / refine-intra=0 / refine-inter=0 / refine-mv=0 / limit-sao / ctu-info=0 / no-lowpass-dct / refine-mv-type=0 / copy-pic=1 / max-ausize-factor=1.0 / no-dynamic-refine / no-single-sei
Default                                  : Yes
Forced                                   : No

Audio
ID                                       : 2
Format                                   : AAC
Format/Info                              : Advanced Audio Codec
Format profile                           : HE-AAC / LC
Codec ID                                 : A_AAC
Duration                                 : 22 min 43 s
Bit rate                                 : 215 kb/s
Channel(s)                               : 6 channels
Channel positions                        : Front: L C R, Side: L R, LFE
Sampling rate                            : 48.0 kHz / 24.0 kHz
Frame rate                               : 23.438 FPS (1024 spf)
Compression mode                         : Lossy
Delay relative to video                  : 31 ms
Stream size                              : 35.0 MiB (14%)
Language                                 : English
Default                                  : No
Forced                                   : No

Subtitle #1
ID                                       : 3
Format                                   : VobSub
Muxing mode                              : zlib
Codec ID                                 : S_VOBSUB
Codec ID/Info                            : Picture based subtitle format used on DVDs
Duration                                 : 22 min 37 s
Bit rate                                 : 13.4 kb/s
Count of elements                        : 390
Stream size                              : 2.16 MiB (1%)
Language                                 : English
Default                                  : No
Forced                                   : No

Subtitle #2
ID                                       : 4
Format                                   : VobSub
Muxing mode                              : zlib
Codec ID                                 : S_VOBSUB
Codec ID/Info                            : Picture based subtitle format used on DVDs
Duration                                 : 22 min 37 s
Bit rate                                 : 9 489 b/s
Count of elements                        : 314
Stream size                              : 1.54 MiB (1%)
Language                                 : French
Default                                  : No
Forced                                   : No

Subtitle #3
ID                                       : 5
Format                                   : VobSub
Muxing mode                              : zlib
Codec ID                                 : S_VOBSUB
Codec ID/Info                            : Picture based subtitle format used on DVDs
Duration                                 : 22 min 37 s
Bit rate                                 : 15.2 kb/s
Count of elements                        : 363
Stream size                              : 2.46 MiB (1%)
Language                                 : German
Default                                  : No
Forced                                   : No

Subtitle #4
ID                                       : 6
Format                                   : VobSub
Muxing mode                              : zlib
Codec ID                                 : S_VOBSUB
Codec ID/Info                            : Picture based subtitle format used on DVDs
Duration                                 : 22 min 37 s
Bit rate                                 : 9 555 b/s
Count of elements                        : 325
Stream size                              : 1.55 MiB (1%)
Language                                 : Spanish
Default                                  : No
Forced                                   : No

Subtitle #5
ID                                       : 7
Format                                   : VobSub
Muxing mode                              : zlib
Codec ID                                 : S_VOBSUB
Codec ID/Info                            : Picture based subtitle format used on DVDs
Duration                                 : 22 min 37 s
Bit rate                                 : 9 847 b/s
Count of elements                        : 235
Stream size                              : 1.59 MiB (1%)
Language                                 : Dutch
Default                                  : No
Forced                                   : No

Subtitle #6
ID                                       : 8
Format                                   : VobSub
Muxing mode                              : zlib
Codec ID                                 : S_VOBSUB
Codec ID/Info                            : Picture based subtitle format used on DVDs
Duration                                 : 22 min 37 s
Bit rate                                 : 11.0 kb/s
Count of elements                        : 358
Stream size                              : 1.78 MiB (1%)
Language                                 : Chinese
Default                                  : No
Forced                                   : No

Subtitle #7
ID                                       : 9
Format                                   : VobSub
Muxing mode                              : zlib
Codec ID                                 : S_VOBSUB
Codec ID/Info                            : Picture based subtitle format used on DVDs
Duration                                 : 22 min 37 s
Bit rate                                 : 10.2 kb/s
Count of elements                        : 339
Stream size                              : 1.64 MiB (1%)
Language                                 : Spanish
Default                                  : No
Forced                                   : No

Subtitle #8
ID                                       : 10
Format                                   : VobSub
Muxing mode                              : zlib
Codec ID                                 : S_VOBSUB
Codec ID/Info                            : Picture based subtitle format used on DVDs
Duration                                 : 22 min 37 s
Bit rate                                 : 10.9 kb/s
Count of elements                        : 341
Stream size                              : 1.76 MiB (1%)
Language                                 : Portuguese
Default                                  : No
Forced                                   : No

Subtitle #9
ID                                       : 11
Format                                   : VobSub
Muxing mode                              : zlib
Codec ID                                 : S_VOBSUB
Codec ID/Info                            : Picture based subtitle format used on DVDs
Duration                                 : 22 min 37 s
Bit rate                                 : 10.4 kb/s
Count of elements                        : 243
Stream size                              : 1.68 MiB (1%)
Language                                 : Danish
Default                                  : No
Forced                                   : No

Subtitle #10
ID                                       : 12
Format                                   : VobSub
Muxing mode                              : zlib
Codec ID                                 : S_VOBSUB
Codec ID/Info                            : Picture based subtitle format used on DVDs
Duration                                 : 22 min 37 s
Bit rate                                 : 10.1 kb/s
Count of elements                        : 245
Stream size                              : 1.64 MiB (1%)
Language                                 : Finnish
Default                                  : No
Forced                                   : No

Subtitle #11
ID                                       : 13
Format                                   : VobSub
Muxing mode                              : zlib
Codec ID                                 : S_VOBSUB
Codec ID/Info                            : Picture based subtitle format used on DVDs
Duration                                 : 22 min 37 s
Bit rate                                 : 8 913 b/s
Count of elements                        : 226
Stream size                              : 1.44 MiB (1%)
Language                                 : Norwegian Bokmal
Default                                  : No
Forced                                   : No

Subtitle #12
ID                                       : 14
Format                                   : VobSub
Muxing mode                              : zlib
Codec ID                                 : S_VOBSUB
Codec ID/Info                            : Picture based subtitle format used on DVDs
Duration                                 : 22 min 37 s
Bit rate                                 : 9 950 b/s
Count of elements                        : 228
Stream size                              : 1.61 MiB (1%)
Language                                 : Swedish
Default                                  : No
Forced                                   : No

Menu
00:00:00.000                             : en:Chapter 01
00:01:08.276                             : en:Chapter 02
00:11:05.915                             : en:Chapter 03
00:21:45.554                             : en:Chapter 04

Source Information
Release: Friends.S03.1080p.BluRay.Remux.AVC.DD.5.1-KST  (61.0 GB)

Category:TV > HEVC/x265
Lang:English  English
Total Size:6.01 GB
Info Hash:ab7bfccaf261b37a17798bc2400fdcf14db12740
Added By:UTR
Date Added:06-12-2018 10:54:44

Files

File List: 
 File Size
Encoded by JoyBell (UTR).txt2.73 kB
folder.jpg17.97 kB
Friends S03E01 The One with the Princess Leia Fantasy (1080p x265 10bit Joy).mkv243 MB
Friends S03E02 The One Where No One's Ready (1080p x265 10bit Joy).mkv245 MB
Friends S03E03 The One with the Jam (1080p x265 10bit Joy).mkv245 MB
Friends S03E04 The One with the Metaphorical Tunnel (1080p x265 10bit Joy).mkv244 MB
Friends S03E05 The One with Frank Jr. (1080p x265 10bit Joy).mkv244 MB
Friends S03E06 The One With The Flashback (1080p x265 10bit Joy).mkv243 MB
Friends S03E07 The One with the Race Car Bed (1080p x265 10bit Joy).mkv245 MB
Friends S03E08 The One with the Giant Poking Device (1080p x265 10bit Joy).mkv252 MB
Friends S03E09 The One with the Football (1080p x265 10bit Joy).mkv244 MB
Friends S03E10 The One Where Rachel Quits (1080p x265 10bit Joy).mkv245 MB
Friends S03E11 The One Where Chandler Can't Remember Which Sister (1080p x265 10bit Joy).mkv246 MB
Friends S03E12 The One with All the Jealousy (1080p x265 10bit Joy).mkv245 MB
Friends S03E13 The One Where Monica and Richard Are Just Friends (1080p x265 10bit Joy).mkv244 MB
Friends S03E14 The One with Phoebe's Ex-Partner (1080p x265 10bit Joy).mkv252 MB
Friends S03E15 The One Where Ross and Rachel Take a Break (1080p x265 10bit Joy).mkv244 MB
Friends S03E16 The One the Morning After (1080p x265 10bit Joy).mkv248 MB
Friends S03E17 The One Without the Ski Trip (1080p x265 10bit Joy).mkv253 MB
Friends S03E18 The One with the Hypnosis Tape (1080p x265 10bit Joy).mkv245 MB
Friends S03E19 The One with the Tiny T-Shirt (1080p x265 10bit Joy).mkv244 MB
Friends S03E20 The One with the Dollhouse (1080p x265 10bit Joy).mkv252 MB
Friends S03E21 The One with the Chick and the Duck (1080p x265 10bit Joy).mkv244 MB
Friends S03E22 The One with the Screamer (1080p x265 10bit Joy).mkv243 MB
Friends S03E23 The One with Ross's Thing (1080p x265 10bit Joy).mkv245 MB
Friends S03E24 The One with the Ultimate Fighting Champion (1080p x265 10bit Joy).mkv252 MB
Friends S03E25 The One at the Beach (1080p x265 10bit Joy).mkv250 MB
How to play HEVC (THIS FILE).txt3.42 kB
Ninite K-Lite Codecs Unattended Silent Installer and Updater.website561.00 B



Comments

There are currently no comments. Be the first one to write something !