kgf sarkar Manikarnika star trek discovery thakrey Xxx kedarnath thackeray malayalam the accidental prime minister supernatural evo aquaman telugu odiyan the flash why cheat india great british bake off s09e10 vikings tushy 18.12 1080p.mp4-ktr charlie chaplin 2 1080P Hindi mirzapur ettv mr majnu the grand tour 2018 ita Adanga Maru Tin Star etmovies dtone uri EVO malayalam 2018 movies AQUAMAN ita Bumblebee ethd ITA zero etrg venom f2 1080p 2018 maari 2 Game Of Thrones viswasam TamilRockers Kannada simmba Kannada ddr simbha tushyraw 1080p.mp4-ktr mortal engines simba petta DTOne uri the surgical strike kung fu the legend Young justice tamil robot 2.0 it brazzers it 2017 2.0 thakre Njan Prakashan glass fgt bohemian rhapsody Star Trek Discovery S02E02 
Warning! Use a VPN When Downloading Torrents!
Your IP Address is 34.228.115.216. Location is United States
Your Internet Provider is tracking your torrent activity! Hide your IP ADDRESS with a VPN!
We strongly recommend using ExpressVPN to anonymize your torrenting. 30 Day Money Back Guarantee!
Try it Now!
ETTV Recommended TV Shows
Doom.Patrol.S01E02.WEBRip.x264-PBS[ettv] torrent
Strike.Back.S07E05.WEBRip.x264-PBS[ettv] torrent
Proven.Innocent.S01E02.WEB.x264-TBS[ettv] torrent
MacGyver.2016.S03E16.WEB.x264-TBS[ettv] torrent
Hawaii.Five-0.2010.S09E16.WEB.x264-TBS[ettv] torrent
The.Blacklist.S06E08.WEB.x264-TBS[ettv] torrent

ETTV Recommended SD
Dirty.Dealing.2019.HDRip.XviD.AC3-EVO torrent
Trading.Paint.2019.HDRip.XViD-ETRG torrent
Vox.Lux.2018.BRRip.XViD-ETRG torrent
Paddleton.2019.WEBRip.XviD-DiNGO[EtMovies] torrent

ETTV Recommended HD
Instant.Family.2018.1080p.BluRay.x264-SPARKS[EtHD] torrent
Iceman The Time Traveller 2018.Multi.1080p.Blu-ray.HEVC.DTS-HDMA.5.1-DTOne torrent
Serenity.2019.1080p.BluRay.HEVC.DTS-HD.MA.5.1-DTOne torrent
The Possession of Hannah Grace 2018 Multi.BluRay 1080p HEVC DTS-HD MA5.1-DTOne torrent

ETTV Recommended UHD
Ralph.Breaks.the.Internet.2018.UHD.2160p.BluRay.x265.HDR.Atmos.7.1-DTOne torrent
Mary.Queen.of.Scots.2018.MULTi.UHD.BluRay.2160p.x265.HDR.Atmos.7.1-DTOne torrent
The.Little.Mermaid.1989.UHD.BluRay.2160p.x265.HDR.Atmos.7.1-DTOne torrent
Fantastic.Beasts.The.Crimes.Of.Grindelwald.2018.MULTI.2160p.HDR.UHDRip.DD.5.1-DTOne torrent

ETTV Recommended Cam
What Men Want 2019 HDCAM x264 AC3 MP4KiNG torrent
The.Prodigy.2019..HDCAM.XViD.AC3-ETRG torrent
Run the Race 2019 720p HDCAM-1XBET torrent
Alita Battle Angel 2019 HDTC x264 AC3-ETRG torrent

ETTV Recommended Foreign
Monstrum 2018 BluRay 1080p TrueHD 5.1 x264-MTeam[EtHD] torrent
Total.Dhamaal.(2019).Untouch.Pre.DVD-DTOne torrent
Yamakasi (2001) x264 720p UNCUT WEB-DL Eng Subs {Dual Audio} [Hindi ORG DD 2.0 + French 2.0] Exclusive By DREDD torrent
Petta (2019) WebDL AVC AAC 2.0 - DTOne torrent


Download Torrent "Outlander (2014) S04E02 (2160p WEBRip x265 HEVC 10bit AAC 5.1 Joy) [UTR]"

IMDB Details
Description:

An English combat nurse from 1945 is mysteriously swept back in time to 1743.

Genre:

Drama, Fantasy, Romance

Download Torrent (Magnet)
Download Torrent (File)
Seeds: 128
Leechers: 85
Completed: 2,383 
Last Checked: 06-12-2018 11:01:13


Loading...
Details
Title:Outlander (2014) S04E02 (2160p WEBRip x265 HEVC 10bit AAC 5.1 Joy) [UTR]
Description:
[img="https://i.postimg.cc/hjkyHjgc/pirate-shark-banner-with-forum-site-address-www-imagesplitter-n.png" alt=""][img="https://i.postimg.cc/CLHPQS2p/pirate-shark-banner-with-forum-site-address-www-imagesplitter-n.png" alt=""]
[img="https://i.postimg.cc/13vWyMPW/pirate-shark-banner-with-forum-site-address-www-imagesplitter-n.png" alt=""][img="https://i.postimg.cc/yNWLx987/pirate-shark-banner-with-forum-site-address-www-imagesplitter-n.png" alt=""]



Media Information
General
Format                                   : Matroska
Format version                           : Version 4 / Version 2
File size                                : 1.64 GiB
Duration                                 : 55 min 53 s
Overall bit rate                         : 4 208 kb/s
Movie name                               : Outlander S04E02 Do No Harm  (2160p x265 10bit Joy)
Encoded date                             : UTC 2018-12-03 22:35:15
Writing application                      : mkvmerge v28.2.0 ('The Awakening') 64-bit
Writing library                          : libebml v1.3.6 + libmatroska v1.4.9
Writing frontend                         : StaxRip v2.0, Encoded by JoyBell

Video
ID                                       : 1
Format                                   : HEVC
Format/Info                              : High Efficiency Video Coding
Format profile                           : Main [email protected]@Main
Codec ID                                 : V_MPEGH/ISO/HEVC
Duration                                 : 55 min 53 s
Bit rate                                 : 3 991 kb/s
Width                                    : 3 840 pixels
Height                                   : 2 160 pixels
Display aspect ratio                     : 16:9
Frame rate mode                          : Constant
Frame rate                               : 23.976 (24000/1001) FPS
Color space                              : YUV
Chroma subsampling                       : 4:2:0
Bit depth                                : 10 bits
Bits/(Pixel*Frame)                       : 0.020
Stream size                              : 1.56 GiB (95%)
Writing library                          : x265 2.9+8-27d8424c799d:[Windows][GCC 8.2.0][64 bit] 10bit
Encoding settings                        : cpuid=1111039 / frame-threads=3 / numa-pools=12 / wpp / no-pmode / no-pme / no-psnr / ssim / log-level=2 / input-csp=1 / input-res=3840x2160 / interlace=0 / total-frames=80406 / level-idc=0 / high-tier=1 / uhd-bd=0 / ref=3 / no-allow-non-conformance / no-repeat-headers / annexb / no-aud / no-hrd / info / hash=0 / no-temporal-layers / open-gop / min-keyint=23 / keyint=250 / gop-lookahead=0 / bframes=8 / b-adapt=2 / b-pyramid / bframe-bias=0 / rc-lookahead=20 / lookahead-slices=8 / scenecut=40 / radl=0 / no-intra-refresh / ctu=64 / min-cu-size=8 / no-rect / no-amp / max-tu-size=32 / tu-inter-depth=1 / tu-intra-depth=1 / limit-tu=0 / rdoq-level=1 / dynamic-rd=4.00 / ssim-rd / signhide / no-tskip / nr-intra=0 / nr-inter=0 / no-constrained-intra / strong-intra-smoothing / max-merge=2 / limit-refs=3 / no-limit-modes / me=1 / subme=2 / merange=57 / temporal-mvp / weightp / weightb / analyze-src-pics / deblock=0:0 / sao / sao-non-deblock / rd=3 / no-early-skip / rskip / no-fast-intra / no-tskip-fast / no-cu-lossless / b-intra / no-splitrd-skip / rdpenalty=0 / psy-rd=0.00 / psy-rdoq=0.00 / no-rd-refine / no-lossless / cbqpoffs=0 / crqpoffs=0 / rc=abr / bitrate=4000 / qcomp=0.60 / qpstep=4 / stats-write=0 / stats-read=2 / cplxblur=20.0 / qblur=0.5 / vbv-maxrate=12000 / vbv-bufsize=24000 / vbv-init=0.9 / ipratio=1.40 / pbratio=1.30 / aq-mode=3 / aq-strength=1.00 / cutree / zone-count=0 / no-strict-cbr / qg-size=32 / no-rc-grain / qpmax=69 / qpmin=0 / no-const-vbv / sar=0 / overscan=0 / videoformat=5 / range=0 / colorprim=2 / transfer=2 / colormatrix=2 / chromaloc=0 / display-window=0 / max-cll=0,0 / min-luma=0 / max-luma=1023 / log2-max-poc-lsb=8 / vui-timing-info / vui-hrd-info / slices=1 / no-opt-qp-pps / no-opt-ref-list-length-pps / multi-pass-opt-rps / scenecut-bias=0.05 / no-opt-cu-delta-qp / no-aq-motion / no-hdr / no-hdr-opt / no-dhdr10-opt / no-idr-recovery-sei / analysis-reuse-level=10 / scale-factor=0 / refine-intra=0 / refine-inter=0 / refine-mv=0 / limit-sao / ctu-info=0 / no-lowpass-dct / refine-mv-type=0 / copy-pic=1 / max-ausize-factor=1.0 / no-dynamic-refine / no-single-sei
Default                                  : Yes
Forced                                   : No

Audio
ID                                       : 2
Format                                   : AAC
Format/Info                              : Advanced Audio Codec
Format profile                           : HE-AAC / LC
Codec ID                                 : A_AAC
Duration                                 : 55 min 53 s
Bit rate                                 : 215 kb/s
Channel(s)                               : 6 channels
Channel positions                        : Front: L C R, Side: L R, LFE
Sampling rate                            : 48.0 kHz / 24.0 kHz
Frame rate                               : 23.438 FPS (1024 spf)
Compression mode                         : Lossy
Delay relative to video                  : 31 ms
Stream size                              : 85.9 MiB (5%)
Language                                 : English
Default                                  : No
Forced                                   : No

Subtitle #1
ID                                       : 3
Format                                   : UTF-8
Codec ID                                 : S_TEXT/UTF8
Codec ID/Info                            : UTF-8 Plain Text
Duration                                 : 53 min 29 s
Bit rate                                 : 79 b/s
Count of elements                        : 852
Stream size                              : 31.1 KiB (0%)
Language                                 : English
Default                                  : No
Forced                                   : No

Subtitle #2
ID                                       : 4
Format                                   : UTF-8
Codec ID                                 : S_TEXT/UTF8
Codec ID/Info                            : UTF-8 Plain Text
Duration                                 : 53 min 11 s
Bit rate                                 : 120 b/s
Count of elements                        : 778
Stream size                              : 46.9 KiB (0%)
Language                                 : Arabic
Default                                  : No
Forced                                   : No

Subtitle #3
ID                                       : 5
Format                                   : UTF-8
Codec ID                                 : S_TEXT/UTF8
Codec ID/Info                            : UTF-8 Plain Text
Duration                                 : 53 min 11 s
Bit rate                                 : 81 b/s
Count of elements                        : 777
Stream size                              : 31.7 KiB (0%)
Language                                 : German
Default                                  : No
Forced                                   : No

Subtitle #4
ID                                       : 6
Format                                   : UTF-8
Codec ID                                 : S_TEXT/UTF8
Codec ID/Info                            : UTF-8 Plain Text
Duration                                 : 53 min 11 s
Bit rate                                 : 72 b/s
Count of elements                        : 755
Stream size                              : 28.3 KiB (0%)
Language                                 : Spanish
Default                                  : No
Forced                                   : No

Subtitle #5
ID                                       : 7
Format                                   : UTF-8
Codec ID                                 : S_TEXT/UTF8
Codec ID/Info                            : UTF-8 Plain Text
Duration                                 : 53 min 11 s
Bit rate                                 : 79 b/s
Count of elements                        : 771
Stream size                              : 31.0 KiB (0%)
Language                                 : French
Default                                  : No
Forced                                   : No

Source Information
Release: Outlander.S04E02.Do.No.Harm.2160p.NF.WEBRip.DD5.1.x264-NTb.mkv (17.91 GBs)

Category:TV > HEVC/x265
Lang:English  English
Total Size:1.64 GB
Info Hash:7f3bbadbca4b17dcbb20c1d20e553882a50b91c5
Added By:UTR
Date Added:06-12-2018 11:01:04

Files

File List: 
 File Size
Outlander S04E02 Do No Harm (2160p x265 10bit S95 Joy).mkv1.64 GB



Comments

There are currently no comments. Be the first one to write something !