kgf sarkar Manikarnika star trek discovery thakrey Xxx kedarnath thackeray malayalam the accidental prime minister supernatural evo aquaman telugu odiyan the flash why cheat india great british bake off s09e10 vikings tushy 18.12 1080p.mp4-ktr charlie chaplin 2 1080P Hindi mirzapur ettv mr majnu the grand tour 2018 ita Adanga Maru Tin Star etmovies dtone uri EVO malayalam 2018 movies AQUAMAN ita Bumblebee ethd ITA zero etrg venom f2 1080p 2018 maari 2 Game Of Thrones viswasam TamilRockers Kannada simmba Kannada ddr simbha tushyraw 1080p.mp4-ktr mortal engines simba petta DTOne uri the surgical strike kung fu the legend Young justice tamil robot 2.0 it brazzers it 2017 2.0 thakre Njan Prakashan glass fgt bohemian rhapsody Star Trek Discovery S02E02 
Warning! Use a VPN When Downloading Torrents!
Your IP Address is 34.207.146.166. Location is United States
Your Internet Provider is tracking your torrent activity! Hide your IP ADDRESS with a VPN!
We strongly recommend using ExpressVPN to anonymize your torrenting. 30 Day Money Back Guarantee!
Try it Now!
ETTV Recommended TV Shows
The.Blacklist.S06E12.HDTV.x264-SVA[ettv] torrent
UFC Fight Night 148 Thompson vs Pettis HDTV x264-Star [TJET] torrent
Billions.S04E02.WEB.H264-MEMENTO[ettv] torrent
Black.Monday.S01E09.WEBRip.x264-TBS[ettv] torrent
Ghost.Adventures.S18E05.Binions.Hotel.and.Casino.720p.WEB.x264-CAFFEiNE[ettv] torrent
American.Gods.S02E03.WEBRip.x264-SHiTSPREAD[ettv] torrent

ETTV Recommended SD
Muse.2019.HDRip.XviD.AC3-EVO torrent
Bumblebee.2018.BDRip.XviD.AC3-EVO torrent
The.Dirt.2019.HDRip.XviD.AC3-EVO torrent
Twelve.2019.HDRip.XviD.AC3-EVO torrent

ETTV Recommended HD
Big.Kill.2018.BluRay.1080p.HEVC.DTS-HDMA.5.1-DDR torrent
St Agatha 2018.MULTi.1080p.Blu-ray.HEVC.DTS-HDMA.5.1-DDR torrent
Second Act 2018.BluRay.1080p.HEVC.DTS-HDMA.5.1-DDR torrent
Bumblebee.2018.MULTi.2160p.BluRay.HEVC..HDR.Atmos.7.1-DDR torrent

ETTV Recommended UHD
Mad.Max.1979.2160p.HDR.UHDrip.HEVC.DTS-HDMA.5.1-DDR torrent
Pet Sematary 1989.Multi.2160p.Blu-ray.HEVC.HDR.DTS-HDMA.5.1-DDR torrent
Borneo - Fascinating Asia 2016.UHD.2160p.SDR.HEVC.DTS-HDMA.5.1-DDR torrent
Bumblebee.2018.UHD.2160p.BluRay.Remux.HEVC.DD.5.1.Dolby.Vision.Remux-DDR torrent

ETTV Recommended Cam
Captive State 2019.HDCAM.x264.AC3-ETRG torrent
Wonder Park 2019 HDCAM x264 AC3-ETRG torrent
Alita.Battle.Angel.2019.HDTS x264.AC3-ETRG torrent
US.2019.720p.HDCAM.x264.AC3-ETRG torrent

ETTV Recommended Foreign
Kesari.2019.1CD.pDVD.Rip.XviD.MP3.Dus torrent
N.T.R - Mahanayakudu 2019.1080p.AMZN.Web-DL.DDP.5.1-DDR torrent
Sharato Lagu.2018.Gujarati.1080p.WEB-DL.AVC.AAC.DDR torrent
Chor Bani Thangaat Kare.2017.Gujarati.1080p.WEB-DL.AVC.AAC.DDR torrent


Download Torrent "Dragon Ball Z Battle of Gods (2013) EXTENDED 1080p BDRip x265 AAC 5.1 Goki ..."

IMDB Details
Description:

The Z-Fighters must contend with Lord Beerus, the God of Destruction, but only a God can fight a God, and none of them are Gods. However with the creation of the Super Saiyan God, will the Z-Fighters be able to defeat Lord Beerus?

Genre:

Animation, Action, Comedy, Fantasy, Sci-Fi

Download Torrent (Magnet)
Download Torrent (File)
Seeds: 56
Leechers: 33
Completed: 375 
Last Checked: 30-12-2018 05:37:47


Details
Title:Dragon Ball Z Battle of Gods (2013) EXTENDED 1080p BDRip x265 AAC 5.1 Goki ...
Description:




Screenshots
Source


Encode



Media Information
Unique ID                                : 94056110772481998688727899712428687608 (0x46C28C4AF80115ADBCE0C800F0EBC0F8)
Complete name                            : Dragon Ball Z Battle of Gods (2013) EXTENDED 1080p BDRip x265 AAC 5.1 Goki [SEV].mkv
Format                                   : Matroska
Format version                           : Version 4
File size                                : 3.05 GiB
Duration                                 : 1 h 45 min
Overall bit rate                         : 4 151 kb/s
Movie name                               : Dragon Ball Z Battle of Gods (2013) EXTENDED 1080p BDRip x265 AAC 5.1 Goki [SEV]
Encoded date                             : UTC 2018-12-30 04:26:26
Writing application                      : mkvmerge v28.2.0 ('The Awakening') 64-bit
Writing library                          : libebml v1.3.6 + libmatroska v1.4.9
Attachments                              : agfor22.TTF / agfor23.TTF / Laffayette_Comic_Pro.ttf / A Love of Thunder.ttf / CALLI__.TTF

Video
ID                                       : 1
Format                                   : HEVC
Format/Info                              : High Efficiency Video Coding
Format profile                           : Main [email protected]@Main
Codec ID                                 : V_MPEGH/ISO/HEVC
Duration                                 : 1 h 45 min
Bit rate                                 : 3 469 kb/s
Width                                    : 1 920 pixels
Height                                   : 1 080 pixels
Display aspect ratio                     : 16:9
Frame rate mode                          : Constant
Frame rate                               : 23.976 (24000/1001) FPS
Color space                              : YUV
Chroma subsampling                       : 4:2:0
Bit depth                                : 10 bits
Bits/(Pixel*Frame)                       : 0.070
Stream size                              : 2.54 GiB (84%)
Writing library                          : x265 2.9+8-27d8424c799d:[Windows][MSVC 1915][64 bit] 10bit
Encoding settings                        : cpuid=1111039 / frame-threads=3 / numa-pools=8 / wpp / no-pmode / no-pme / no-psnr / no-ssim / log-level=2 / input-csp=1 / input-res=1920x1080 / interlace=0 / total-frames=0 / level-idc=0 / high-tier=1 / uhd-bd=0 / ref=4 / no-allow-non-conformance / no-repeat-headers / annexb / no-aud / no-hrd / info / hash=0 / no-temporal-layers / open-gop / min-keyint=23 / keyint=250 / gop-lookahead=0 / bframes=8 / b-adapt=2 / b-pyramid / bframe-bias=0 / rc-lookahead=100 / lookahead-slices=4 / scenecut=40 / radl=0 / no-intra-refresh / ctu=64 / min-cu-size=8 / no-rect / no-amp / max-tu-size=32 / tu-inter-depth=2 / tu-intra-depth=2 / limit-tu=4 / rdoq-level=2 / dynamic-rd=0.00 / no-ssim-rd / signhide / no-tskip / nr-intra=0 / nr-inter=0 / no-constrained-intra / no-strong-intra-smoothing / max-merge=3 / limit-refs=2 / limit-modes / me=3 / subme=5 / merange=57 / temporal-mvp / weightp / weightb / no-analyze-src-pics / deblock=0:0 / sao / no-sao-non-deblock / rd=6 / no-early-skip / rskip / no-fast-intra / no-tskip-fast / no-cu-lossless / b-intra / no-splitrd-skip / rdpenalty=0 / psy-rd=1.30 / psy-rdoq=2.00 / no-rd-refine / no-lossless / cbqpoffs=0 / crqpoffs=0 / rc=crf / crf=17.0 / qcomp=0.60 / qpstep=4 / stats-write=0 / stats-read=0 / ipratio=1.40 / pbratio=1.30 / aq-mode=2 / aq-strength=1.10 / cutree / zone-count=0 / no-strict-cbr / qg-size=32 / no-rc-grain / qpmax=69 / qpmin=0 / no-const-vbv / sar=1 / overscan=0 / videoformat=5 / range=0 / colorprim=2 / transfer=2 / colormatrix=2 / chromaloc=0 / display-window=0 / max-cll=0,0 / min-luma=0 / max-luma=1023 / log2-max-poc-lsb=8 / vui-timing-info / vui-hrd-info / slices=1 / no-opt-qp-pps / no-opt-ref-list-length-pps / no-multi-pass-opt-rps / scenecut-bias=0.05 / no-opt-cu-delta-qp / no-aq-motion / no-hdr / no-hdr-opt / no-dhdr10-opt / no-idr-recovery-sei / analysis-reuse-level=5 / scale-factor=0 / refine-intra=0 / refine-inter=0 / refine-mv=0 / no-limit-sao / ctu-info=0 / no-lowpass-dct / refine-mv-type=0 / copy-pic=1 / max-ausize-factor=1.0 / no-dynamic-refine / no-single-sei
Language                                 : English
Default                                  : Yes
Forced                                   : No

Audio #1
ID                                       : 2
Format                                   : AAC LC
Format/Info                              : Advanced Audio Codec Low Complexity
Codec ID                                 : A_AAC-2
Duration                                 : 1 h 45 min
Bit rate                                 : 448 kb/s
Channel(s)                               : 6 channels
Channel layout                           : C L R Ls Rs LFE
Sampling rate                            : 48.0 kHz
Frame rate                               : 46.875 FPS (1024 SPF)
Compression mode                         : Lossy
Delay relative to video                  : 9 ms
Stream size                              : 337 MiB (11%)
Title                                    : English AAC 5.1
Language                                 : English
Default                                  : Yes
Forced                                   : No

Audio #2
ID                                       : 3
Format                                   : AC-3
Format/Info                              : Audio Coding 3
Commercial name                          : Dolby Digital
Codec ID                                 : A_AC3
Duration                                 : 1 h 45 min
Bit rate mode                            : Constant
Bit rate                                 : 192 kb/s
Channel(s)                               : 2 channels
Channel layout                           : L R
Sampling rate                            : 48.0 kHz
Frame rate                               : 31.250 FPS (1536 SPF)
Bit depth                                : 16 bits
Compression mode                         : Lossy
Stream size                              : 144 MiB (5%)
Title                                    : Japanese AC3 2.0
Language                                 : Japanese
Service kind                             : Complete Main
Default                                  : No
Forced                                   : No

Text #1
ID                                       : 4
Format                                   : PGS
Codec ID                                 : S_HDMV/PGS
Codec ID/Info                            : Picture based subtitle format used on BDs/HD-DVDs
Duration                                 : 45 s 921 ms
Bit rate                                 : 7 583 b/s
Count of elements                        : 8
Stream size                              : 42.5 KiB (0%)
Title                                    : English Signs PGS
Language                                 : English
Default                                  : Yes
Forced                                   : No

Text #2
ID                                       : 5
Format                                   : PGS
Codec ID                                 : S_HDMV/PGS
Codec ID/Info                            : Picture based subtitle format used on BDs/HD-DVDs
Duration                                 : 1 h 42 min
Bit rate                                 : 40.7 kb/s
Count of elements                        : 2728
Stream size                              : 29.8 MiB (1%)
Title                                    : English PGS
Language                                 : English
Default                                  : No
Forced                                   : No

Menu #1
00:00:00.000                             : en:Chapter 01
00:06:56.124                             : en:Chapter 02
00:13:18.714                             : en:Chapter 03
00:19:19.908                             : en:Chapter 04
00:27:56.341                             : en:Chapter 05
00:35:53.442                             : en:Chapter 06
00:42:19.370                             : en:Chapter 07
00:48:07.301                             : en:Chapter 08
00:55:06.553                             : en:Chapter 09
01:05:36.599                             : en:Chapter 10
01:12:24.173                             : en:Chapter 11
01:17:55.504                             : en:Chapter 12
01:28:07.365                             : en:Chapter 13
01:37:09.323                             : en:Chapter 14
01:43:11.351                             : en:Chapter 15





Source Media Information
Unique ID                                : 31296894841847256822553505659101797131 (0x178B900CBA8EE7F5C8248A0A52065B0B)
Complete name                            : Dragon.Ball.Z.Movie.14.Battle.of.Gods.2013.EXTENDED.DUAL.AUDiO.SUB.PL.1080p.BluRay.REMUX.AVC.TrueHD.5.1-SeBoLeX.mkv
Format                                   : Matroska
Format version                           : Version 4
File size                                : 17.4 GiB
Duration                                 : 1 h 45 min
Overall bit rate mode                    : Variable
Overall bit rate                         : 23.7 Mb/s
Movie name                               : RARBG.COM - Dragon.Ball.Z.Battle.of.Gods.2013.EXTENDED.1080p.BluRay.REMUX.AVC.TrueHD.5.1-RARBG
Encoded date                             : UTC 2018-09-05 15:08:57
Writing application                      : mkvmerge v25.0.0 ('Prog Noir') 64-bit
Writing library                          : libebml v1.3.6 + libmatroska v1.4.9
Attachments                              : agfor22.TTF / agfor23.TTF / Laffayette_Comic_Pro.ttf / A Love of Thunder.ttf / CALLI__.TTF

Video
ID                                       : 1
Format                                   : AVC
Format/Info                              : Advanced Video Codec
Format profile                           : [email protected]
Format settings                          : CABAC / 4 Ref Frames
Format settings, CABAC                   : Yes
Format settings, RefFrames               : 4 frames
Codec ID                                 : V_MPEG4/ISO/AVC
Duration                                 : 1 h 45 min
Bit rate mode                            : Variable
Bit rate                                 : 20.0 Mb/s
Maximum bit rate                         : 39.0 Mb/s
Width                                    : 1 920 pixels
Height                                   : 1 080 pixels
Display aspect ratio                     : 16:9
Frame rate mode                          : Constant
Frame rate                               : 23.976 (24000/1001) FPS
Color space                              : YUV
Chroma subsampling                       : 4:2:0
Bit depth                                : 8 bits
Scan type                                : Progressive
Bits/(Pixel*Frame)                       : 0.402
Stream size                              : 14.7 GiB (84%)
Title                                    : Dragon Ball Z Movie 14 - Battle of Gods (EXTENDED)
Language                                 : English
Default                                  : Yes
Forced                                   : No

Audio #1
ID                                       : 2
Format                                   : MLP FBA
Format/Info                              : Meridian Lossless Packing FBA
Commercial name                          : Dolby TrueHD
Codec ID                                 : A_TRUEHD
Duration                                 : 1 h 45 min
Bit rate mode                            : Variable
Bit rate                                 : 2 227 kb/s
Maximum bit rate                         : 3 639 kb/s
Channel(s)                               : 6 channels
Channel layout                           : L R C LFE Ls Rs
Sampling rate                            : 48.0 kHz
Frame rate                               : 1 200.000 FPS (40 SPF)
Compression mode                         : Lossless
Stream size                              : 1.63 GiB (9%)
Title                                    : English TrueHD 5.1
Language                                 : English
Default                                  : No
Forced                                   : No

Audio #2
ID                                       : 3
Format                                   : DTS
Format/Info                              : Digital Theater Systems
Codec ID                                 : A_DTS
Duration                                 : 1 h 45 min
Bit rate mode                            : Constant
Bit rate                                 : 768 kb/s
Channel(s)                               : 6 channels
Channel layout                           : C L R Ls Rs LFE
Sampling rate                            : 48.0 kHz
Frame rate                               : 93.750 FPS (512 SPF)
Bit depth                                : 24 bits
Compression mode                         : Lossy
Stream size                              : 577 MiB (3%)
Title                                    : English DTS 5.1
Language                                 : English
Default                                  : No
Forced                                   : No

Audio #3
ID                                       : 4
Format                                   : AC-3
Format/Info                              : Audio Coding 3
Commercial name                          : Dolby Digital
Codec ID                                 : A_AC3
Duration                                 : 1 h 45 min
Bit rate mode                            : Constant
Bit rate                                 : 448 kb/s
Channel(s)                               : 6 channels
Channel layout                           : L R C LFE Ls Rs
Sampling rate                            : 48.0 kHz
Frame rate                               : 31.250 FPS (1536 SPF)
Bit depth                                : 16 bits
Compression mode                         : Lossy
Stream size                              : 337 MiB (2%)
Title                                    : English DD 5.1
Language                                 : English
Service kind                             : Complete Main
Default                                  : No
Forced                                   : No

Audio #4
ID                                       : 5
Format                                   : AC-3
Format/Info                              : Audio Coding 3
Commercial name                          : Dolby Digital
Codec ID                                 : A_AC3
Duration                                 : 1 h 45 min
Bit rate mode                            : Constant
Bit rate                                 : 192 kb/s
Channel(s)                               : 2 channels
Channel layout                           : L R
Sampling rate                            : 48.0 kHz
Frame rate                               : 31.250 FPS (1536 SPF)
Bit depth                                : 16 bits
Compression mode                         : Lossy
Stream size                              : 144 MiB (1%)
Title                                    : Japanese DD 5.1
Language                                 : Japanese
Service kind                             : Complete Main
Default                                  : Yes
Forced                                   : No

Text #1
ID                                       : 6
Format                                   : UTF-8
Codec ID                                 : S_TEXT/UTF8
Codec ID/Info                            : UTF-8 Plain Text
Duration                                 : 1 h 42 min
Bit rate                                 : 51 b/s
Count of elements                        : 1348
Stream size                              : 38.8 KiB (0%)
Title                                    : Polish
Language                                 : Polish
Default                                  : Yes
Forced                                   : Yes

Text #2
ID                                       : 7
Format                                   : PGS
Muxing mode                              : zlib
Codec ID                                 : S_HDMV/PGS
Codec ID/Info                            : Picture based subtitle format used on BDs/HD-DVDs
Duration                                 : 1 h 42 min
Bit rate                                 : 40.7 kb/s
Count of elements                        : 2728
Stream size                              : 29.8 MiB (0%)
Title                                    : English SDH
Language                                 : English
Default                                  : No
Forced                                   : No

Text #3
ID                                       : 8
Format                                   : PGS
Muxing mode                              : zlib
Codec ID                                 : S_HDMV/PGS
Codec ID/Info                            : Picture based subtitle format used on BDs/HD-DVDs
Duration                                 : 45 s 921 ms
Bit rate                                 : 7 583 b/s
Count of elements                        : 8
Stream size                              : 42.5 KiB (0%)
Language                                 : English
Default                                  : No
Forced                                   : No

Menu
00:00:00.000                             : en:Chapter 01
00:06:56.124                             : en:Chapter 02
00:13:18.714                             : en:Chapter 03
00:19:19.908                             : en:Chapter 04
00:27:56.341                             : en:Chapter 05
00:35:53.442                             : en:Chapter 06
00:42:19.370                             : en:Chapter 07
00:48:07.301                             : en:Chapter 08
00:55:06.553                             : en:Chapter 09
01:05:36.599                             : en:Chapter 10
01:12:24.173                             : en:Chapter 11
01:17:55.504                             : en:Chapter 12
01:28:07.365                             : en:Chapter 13
01:37:09.323                             : en:Chapter 14
01:43:11.351                             : en:Chapter 15



We have no issue with individuals posting or re-uploading our torrents on a platform we aren't on. However, if this is something you'd like to do, please do so in a 'as-is' format. We ask that you do not create a new torrent, include all descriptions you see above including the SEV logo, tags, notes and screenshots. If you'd like to become a permanent poster on a website we don't post to, feel free to get in contact with a Sublime Encoded Video member.


We are recruiting/training new members for SEV & seedbox providers as well as people to help out with subtitles. 
As you already know, we deliver quality, so you know the standard. 
If you're interested, feel free to contact any of the team members.

Category:Anime > Movies
Lang:English  English
Total Size:3.05 GB
Info Hash:e2e4b0bae697e285c7340ec275d204180641a996
Added By:D0ct0rLew
Date Added:30-12-2018 05:37:42

Files

File List: 
 File Size
Dragon Ball Z Battle of Gods (2013) EXTENDED 1080p BDRip x265 AAC 5.1 Goki [SEV]-banner.jpg248.68 kB
Dragon Ball Z Battle of Gods (2013) EXTENDED 1080p BDRip x265 AAC 5.1 Goki [SEV]-clearart.png561.66 kB
Dragon Ball Z Battle of Gods (2013) EXTENDED 1080p BDRip x265 AAC 5.1 Goki [SEV]-clearlogo.png117.12 kB
Dragon Ball Z Battle of Gods (2013) EXTENDED 1080p BDRip x265 AAC 5.1 Goki [SEV]-disc.png1 MB
Dragon Ball Z Battle of Gods (2013) EXTENDED 1080p BDRip x265 AAC 5.1 Goki [SEV]-fanart.jpg252.65 kB
Dragon Ball Z Battle of Gods (2013) EXTENDED 1080p BDRip x265 AAC 5.1 Goki [SEV]-logo.png117.12 kB
Dragon Ball Z Battle of Gods (2013) EXTENDED 1080p BDRip x265 AAC 5.1 Goki [SEV]-poster.jpg117.17 kB
Dragon Ball Z Battle of Gods (2013) EXTENDED 1080p BDRip x265 AAC 5.1 Goki [SEV]-thumb.jpg449.32 kB
Dragon Ball Z Battle of Gods (2013) EXTENDED 1080p BDRip x265 AAC 5.1 Goki [SEV].mkv3.05 GB
Dragon Ball Z Battle of Gods (2013) EXTENDED 1080p BDRip x265 AAC 5.1 Goki [SEV].nfo8.23 kB



Comments

There are currently no comments. Be the first one to write something !