italian The Orville hindi game of thrones young sheldon S02E13 big bang theory The punisher s02 gotham bohemian rhapsody ita split The Good Place s03e12 great british bake off s09e10 2018 ita the big bang theory S12E13 the punisher the good place fgt star trek star trek discovery s02e01 star trek discovery s02 The flash bumblebee tushy 18.12 1080p.mp4-ktr the big bang theory brooklyn nine nine s06e02 tushyraw 1080p.mp4-ktr supernatural ita complete season anal Venom Modern Family evo lesbian ncis Xxx GREYS ANATOMY DTONE etmovies bohemian rhapsody ıt 2017 ethd EtHD the grand tour the orville s02e04 etrg true detective gotham s05e03 mom ddr aquaman you star trek discovery español star trek discovery 1080P 2160p a star is born Young sheldon Supernatural S14E10 windows 10 it brooklyn nine nine ettv punisher AQUAMAN ita dtone arrow arrow español orville vikings S05E18 vikings 
Warning! Use a VPN When Downloading Torrents!
Your IP Address is 18.205.246.238. Location is United States
Your Internet Provider is tracking your torrent activity! Hide your IP ADDRESS with a VPN!
We strongly recommend using ExpressVPN to anonymize your torrenting. 30 Day Money Back Guarantee!
Try it Now!
ETTV Recommended TV Shows
The.Blacklist.S06E04.HDTV.x264-BATV[ettv] torrent
Blindspot.S04E10.HDTV.x264-SVA[ettv] torrent
MacGyver.2016.S03E13.HDTV.x264-SVA[ettv] torrent
Hawaii.Five-0.2010.S09E13.HDTV.x264-BATV[ettv] torrent

ETTV Recommended SD
Deadly.Switch.2019.HDRip.XViD-ETRG torrent
Close.2019.HDRip.XViD-ETRG torrent
IO.2019.HDRip.XViD-ETRG torrent
Bumblebee.2018.HC.HDRip.XViD.AC3-ETRG torrent

ETTV Recommended HD
All The Devil\'s Men 2018 Multi 1080p Blu Ray HEVC.DTS-HD MA.5.1-DTOne torrent
Boy Erased 2018 Multi.1080p.Bluray.HEVCDTS-HDMA.5.1-DTOne torrent
Indivisible 2018 Multi.1080p.Bluray.HEVC.DTS-HDMA.5.1-DTOne torrent
Take The Ball Pass The Ball 2018 1080p.Bluray.HEVC.DTS-HDMA.5.1-DTOne torrent

ETTV Recommended UHD
Star.Trek.Into.Darkness.2013.Multi.2160p.UHD.Bluray.x265.HDR.Atmos.7.1.[En+Hi+]-DTOne torrent
Johnny English Strikes Again 2018.UHD.2160p.Blu-ray.x265.DTS-HD.MA.7.1-DTOne torrent
The Hate U Give 2018.Multi.UHD.BluRay.2160p.x265.DTS-HD.MA.7.1-DTOne torrent
Future Man 2018Multi..UHD.2160p.Bluray.x265.HDR.Atmos.7.1-DTone torrent

ETTV Recommended Cam
How to Train Your Dragon 3 2019 HDCAM XViD AC3-ETRG torrent
Mary Poppins Returns 2018 NEW HDTS x264 AC3-ETRG torrent
Second Act 2018 HDCAM x264 AC3-ETRG torrent
Glass 2019.HDCAM.XViD.AC3-ETRG torrent

ETTV Recommended Foreign
Big Brother 2018 BluRay 1080p AAC x264-MPAD[EtHD] torrent
Padi Padi Leche Manasu.2018.1080p.AMZN.WeB.DL.H264.DDP.5.1.DTOne torrent
No Strings Attached (2011) 1080p Multi AMZN WEB-DL DDP 5.1 [En+Hi] MSub - DTOne torrent
Soni (2019) 1080p NF WEB-DL DDP 5.1 MSub - DTOne torrent


Download Torrent "The Matrix Revolutions (2003) (2160p BluRay x265 HEVC 10bit AAC 7.1 Joy) [U..."

IMDB Details
Description:

The human city of Zion defends itself against the massive invasion of the machines as Neo fights to end the war at another front while also opposing the rogue Agent Smith.

Genre:

Action, Sci-Fi

Download Torrent (Magnet)
Download Torrent (File)
Seeds: 140
Leechers: 76
Completed: 1,416 
Last Checked: 07-01-2019 13:54:21


Loading...
Details
Title:The Matrix Revolutions (2003) (2160p BluRay x265 HEVC 10bit AAC 7.1 Joy) [U...
Description:





Media Information
General
Format                                   : Matroska
Format version                           : Version 4 / Version 2
File size                                : 6.05 GiB
Duration                                 : 2 h 9 min
Overall bit rate                         : 6 701 kb/s
Movie name                               : The Matrix Revolutions 2003  (2160p x265 10bit FS79 Joy)[UTR]
Encoded date                             : UTC 2019-01-05 01:50:08
Writing application                      : mkvmerge v29.0.0 ('Like It Or Not') 64-bit
Writing library                          : libebml v1.3.6 + libmatroska v1.4.9
Cover                                    : Yes
Attachments                              : cover.jpg
Writing frontend                         : StaxRip v2.0, Encoded by JoyBell

Video
ID                                       : 1
Format                                   : HEVC
Format/Info                              : High Efficiency Video Coding
Format profile                           : Main [email protected]@Main
Codec ID                                 : V_MPEGH/ISO/HEVC
Duration                                 : 2 h 9 min
Bit rate                                 : 6 000 kb/s
Width                                    : 3 840 pixels
Height                                   : 1 600 pixels
Display aspect ratio                     : 2.40:1
Frame rate mode                          : Constant
Frame rate                               : 23.976 (24000/1001) FPS
Color space                              : YUV
Chroma subsampling                       : 4:2:0
Bit depth                                : 10 bits
Bits/(Pixel*Frame)                       : 0.041
Stream size                              : 5.42 GiB (90%)
Writing library                          : x265 2.9+15-81373aab81df:[Windows][MSVC 1916][64 bit] 10bit
Encoding settings                        : cpuid=1111039 / frame-threads=3 / numa-pools=12 / wpp / no-pmode / no-pme / no-psnr / ssim / log-level=2 / input-csp=1 / input-res=3840x1600 / interlace=0 / total-frames=185954 / level-idc=0 / high-tier=1 / uhd-bd=0 / ref=4 / no-allow-non-conformance / no-repeat-headers / annexb / no-aud / no-hrd / info / hash=0 / no-temporal-layers / open-gop / min-keyint=23 / keyint=250 / gop-lookahead=0 / bframes=4 / b-adapt=2 / b-pyramid / bframe-bias=0 / rc-lookahead=80 / lookahead-slices=4 / scenecut=40 / radl=0 / no-splice / no-intra-refresh / ctu=64 / min-cu-size=8 / no-rect / no-amp / max-tu-size=32 / tu-inter-depth=1 / tu-intra-depth=1 / limit-tu=0 / rdoq-level=2 / dynamic-rd=0.00 / ssim-rd / signhide / no-tskip / nr-intra=0 / nr-inter=0 / no-constrained-intra / strong-intra-smoothing / max-merge=3 / limit-refs=3 / limit-modes / me=3 / subme=3 / merange=57 / temporal-mvp / weightp / no-weightb / no-analyze-src-pics / deblock=0:0 / sao / no-sao-non-deblock / rd=4 / early-skip / rskip / no-fast-intra / no-tskip-fast / no-cu-lossless / no-b-intra / splitrd-skip / rdpenalty=0 / psy-rd=2.20 / psy-rdoq=1.15 / no-rd-refine / no-lossless / cbqpoffs=0 / crqpoffs=0 / rc=abr / bitrate=6000 / qcomp=0.60 / qpstep=4 / stats-write=0 / stats-read=2 / cplxblur=20.0 / qblur=0.5 / ipratio=1.40 / pbratio=1.30 / aq-mode=3 / aq-strength=0.80 / cutree / zone-count=0 / no-strict-cbr / qg-size=32 / no-rc-grain / qpmax=69 / qpmin=0 / no-const-vbv / sar=0 / overscan=0 / videoformat=5 / range=0 / colorprim=2 / transfer=2 / colormatrix=2 / chromaloc=0 / display-window=0 / max-cll=0,0 / min-luma=0 / max-luma=1023 / log2-max-poc-lsb=8 / vui-timing-info / vui-hrd-info / slices=1 / no-opt-qp-pps / no-opt-ref-list-length-pps / multi-pass-opt-rps / scenecut-bias=0.05 / no-opt-cu-delta-qp / no-aq-motion / no-hdr / no-hdr-opt / no-dhdr10-opt / no-idr-recovery-sei / analysis-reuse-level=10 / scale-factor=0 / refine-intra=0 / refine-inter=0 / refine-mv=0 / limit-sao / ctu-info=0 / no-lowpass-dct / refine-mv-type=0 / copy-pic=1 / max-ausize-factor=1.0 / no-dynamic-refine / no-single-sei
Default                                  : Yes
Forced                                   : No

Audio
ID                                       : 2
Format                                   : AAC
Format/Info                              : Advanced Audio Codec
Format profile                           : LC
Codec ID                                 : A_AAC
Duration                                 : 2 h 9 min
Bit rate                                 : 461 kb/s
Channel(s)                               : 7 channels
Channel(s)_Original                      : 8 channels
Channel positions                        : Front: L C R, Side: L R, Back: L R, LFE
Sampling rate                            : 48.0 kHz
Frame rate                               : 46.875 FPS (1024 spf)
Compression mode                         : Lossy
Delay relative to video                  : 9 ms
Stream size                              : 426 MiB (7%)
Language                                 : English
Default                                  : No
Forced                                   : No

Subtitle #1
ID                                       : 3
Format                                   : UTF-8
Codec ID                                 : S_TEXT/UTF8
Codec ID/Info                            : UTF-8 Plain Text
Duration                                 : 1 h 58 min
Bit rate                                 : 42 b/s
Count of elements                        : 1073
Stream size                              : 36.6 KiB (0%)
Language                                 : English
Default                                  : No
Forced                                   : No

Subtitle #2
ID                                       : 4
Format                                   : PGS
Muxing mode                              : zlib
Codec ID                                 : S_HDMV/PGS
Codec ID/Info                            : Picture based subtitle format used on BDs/HD-DVDs
Duration                                 : 2 h 7 min
Bit rate                                 : 21.4 kb/s
Count of elements                        : 2220
Stream size                              : 19.6 MiB (0%)
Language                                 : English
Default                                  : No
Forced                                   : No

Subtitle #3
ID                                       : 5
Format                                   : PGS
Muxing mode                              : zlib
Codec ID                                 : S_HDMV/PGS
Codec ID/Info                            : Picture based subtitle format used on BDs/HD-DVDs
Duration                                 : 1 h 58 min
Bit rate                                 : 18.1 kb/s
Count of elements                        : 2206
Stream size                              : 15.4 MiB (0%)
Language                                 : Japanese
Default                                  : No
Forced                                   : No

Subtitle #4
ID                                       : 6
Format                                   : PGS
Muxing mode                              : zlib
Codec ID                                 : S_HDMV/PGS
Codec ID/Info                            : Picture based subtitle format used on BDs/HD-DVDs
Duration                                 : 2 h 7 min
Bit rate                                 : 25.2 kb/s
Count of elements                        : 2268
Stream size                              : 23.0 MiB (0%)
Language                                 : German
Default                                  : No
Forced                                   : No

Subtitle #5
ID                                       : 7
Format                                   : PGS
Muxing mode                              : zlib
Codec ID                                 : S_HDMV/PGS
Codec ID/Info                            : Picture based subtitle format used on BDs/HD-DVDs
Duration                                 : 2 h 7 min
Bit rate                                 : 22.2 kb/s
Count of elements                        : 2228
Stream size                              : 20.3 MiB (0%)
Language                                 : Italian
Default                                  : No
Forced                                   : No

Subtitle #6
ID                                       : 8
Format                                   : PGS
Muxing mode                              : zlib
Codec ID                                 : S_HDMV/PGS
Codec ID/Info                            : Picture based subtitle format used on BDs/HD-DVDs
Duration                                 : 2 h 7 min
Bit rate                                 : 19.9 kb/s
Count of elements                        : 2106
Stream size                              : 18.2 MiB (0%)
Language                                 : Spanish
Default                                  : No
Forced                                   : No

Subtitle #7
ID                                       : 9
Format                                   : PGS
Muxing mode                              : zlib
Codec ID                                 : S_HDMV/PGS
Codec ID/Info                            : Picture based subtitle format used on BDs/HD-DVDs
Duration                                 : 2 h 8 min
Bit rate                                 : 16.8 kb/s
Count of elements                        : 2116
Stream size                              : 15.5 MiB (0%)
Language                                 : Chinese
Default                                  : No
Forced                                   : No

Subtitle #8
ID                                       : 10
Format                                   : PGS
Muxing mode                              : zlib
Codec ID                                 : S_HDMV/PGS
Codec ID/Info                            : Picture based subtitle format used on BDs/HD-DVDs
Duration                                 : 2 h 8 min
Bit rate                                 : 12.1 kb/s
Count of elements                        : 2118
Stream size                              : 11.1 MiB (0%)
Language                                 : Korean
Default                                  : No
Forced                                   : No

Subtitle #9
ID                                       : 11
Format                                   : PGS
Muxing mode                              : zlib
Codec ID                                 : S_HDMV/PGS
Codec ID/Info                            : Picture based subtitle format used on BDs/HD-DVDs
Duration                                 : 2 h 7 min
Bit rate                                 : 20.6 kb/s
Count of elements                        : 1840
Stream size                              : 18.8 MiB (0%)
Language                                 : Portuguese
Default                                  : No
Forced                                   : No

Subtitle #10
ID                                       : 12
Format                                   : PGS
Muxing mode                              : zlib
Codec ID                                 : S_HDMV/PGS
Codec ID/Info                            : Picture based subtitle format used on BDs/HD-DVDs
Duration                                 : 2 h 8 min
Bit rate                                 : 12.0 kb/s
Count of elements                        : 2154
Stream size                              : 11.0 MiB (0%)
Language                                 : Arabic
Default                                  : No
Forced                                   : No

Subtitle #11
ID                                       : 13
Format                                   : PGS
Muxing mode                              : zlib
Codec ID                                 : S_HDMV/PGS
Codec ID/Info                            : Picture based subtitle format used on BDs/HD-DVDs
Duration                                 : 2 h 7 min
Bit rate                                 : 16.0 kb/s
Count of elements                        : 2134
Stream size                              : 14.6 MiB (0%)
Language                                 : Croatian
Default                                  : No
Forced                                   : No

Subtitle #12
ID                                       : 14
Format                                   : PGS
Muxing mode                              : zlib
Codec ID                                 : S_HDMV/PGS
Codec ID/Info                            : Picture based subtitle format used on BDs/HD-DVDs
Duration                                 : 2 h 7 min
Bit rate                                 : 17.4 kb/s
Count of elements                        : 2112
Stream size                              : 16.0 MiB (0%)
Language                                 : Czech
Default                                  : No
Forced                                   : No

Subtitle #13
ID                                       : 15
Format                                   : PGS
Muxing mode                              : zlib
Codec ID                                 : S_HDMV/PGS
Codec ID/Info                            : Picture based subtitle format used on BDs/HD-DVDs
Duration                                 : 2 h 7 min
Bit rate                                 : 18.4 kb/s
Count of elements                        : 1602
Stream size                              : 16.8 MiB (0%)
Language                                 : Danish
Default                                  : No
Forced                                   : No

Subtitle #14
ID                                       : 16
Format                                   : PGS
Muxing mode                              : zlib
Codec ID                                 : S_HDMV/PGS
Codec ID/Info                            : Picture based subtitle format used on BDs/HD-DVDs
Duration                                 : 2 h 7 min
Bit rate                                 : 18.0 kb/s
Count of elements                        : 1810
Stream size                              : 16.5 MiB (0%)
Language                                 : Finnish
Default                                  : No
Forced                                   : No

Subtitle #15
ID                                       : 17
Format                                   : PGS
Muxing mode                              : zlib
Codec ID                                 : S_HDMV/PGS
Codec ID/Info                            : Picture based subtitle format used on BDs/HD-DVDs
Duration                                 : 2 h 7 min
Bit rate                                 : 40.3 kb/s
Count of elements                        : 2202
Stream size                              : 36.8 MiB (1%)
Language                                 : Greek
Default                                  : No
Forced                                   : No

Subtitle #16
ID                                       : 18
Format                                   : PGS
Muxing mode                              : zlib
Codec ID                                 : S_HDMV/PGS
Codec ID/Info                            : Picture based subtitle format used on BDs/HD-DVDs
Duration                                 : 2 h 8 min
Bit rate                                 : 17.9 kb/s
Count of elements                        : 2136
Stream size                              : 16.4 MiB (0%)
Language                                 : Hungarian
Default                                  : No
Forced                                   : No

Subtitle #17
ID                                       : 19
Format                                   : PGS
Muxing mode                              : zlib
Codec ID                                 : S_HDMV/PGS
Codec ID/Info                            : Picture based subtitle format used on BDs/HD-DVDs
Duration                                 : 2 h 7 min
Bit rate                                 : 19.8 kb/s
Count of elements                        : 1986
Stream size                              : 18.1 MiB (0%)
Language                                 : Norwegian Bokmal
Default                                  : No
Forced                                   : No

Subtitle #18
ID                                       : 20
Format                                   : PGS
Muxing mode                              : zlib
Codec ID                                 : S_HDMV/PGS
Codec ID/Info                            : Picture based subtitle format used on BDs/HD-DVDs
Duration                                 : 2 h 8 min
Bit rate                                 : 15.8 kb/s
Count of elements                        : 2114
Stream size                              : 14.5 MiB (0%)
Language                                 : Polish
Default                                  : No
Forced                                   : No

Subtitle #19
ID                                       : 21
Format                                   : PGS
Muxing mode                              : zlib
Codec ID                                 : S_HDMV/PGS
Codec ID/Info                            : Picture based subtitle format used on BDs/HD-DVDs
Duration                                 : 2 h 7 min
Bit rate                                 : 20.9 kb/s
Count of elements                        : 2130
Stream size                              : 19.2 MiB (0%)
Language                                 : Portuguese
Default                                  : No
Forced                                   : No

Subtitle #20
ID                                       : 22
Format                                   : PGS
Muxing mode                              : zlib
Codec ID                                 : S_HDMV/PGS
Codec ID/Info                            : Picture based subtitle format used on BDs/HD-DVDs
Duration                                 : 2 h 8 min
Bit rate                                 : 18.1 kb/s
Count of elements                        : 2136
Stream size                              : 16.7 MiB (0%)
Language                                 : Romanian
Default                                  : No
Forced                                   : No

Subtitle #21
ID                                       : 23
Format                                   : PGS
Muxing mode                              : zlib
Codec ID                                 : S_HDMV/PGS
Codec ID/Info                            : Picture based subtitle format used on BDs/HD-DVDs
Duration                                 : 2 h 8 min
Bit rate                                 : 19.6 kb/s
Count of elements                        : 2170
Stream size                              : 18.1 MiB (0%)
Language                                 : Russian
Default                                  : No
Forced                                   : No

Subtitle #22
ID                                       : 24
Format                                   : PGS
Muxing mode                              : zlib
Codec ID                                 : S_HDMV/PGS
Codec ID/Info                            : Picture based subtitle format used on BDs/HD-DVDs
Duration                                 : 2 h 7 min
Bit rate                                 : 17.6 kb/s
Count of elements                        : 1690
Stream size                              : 16.1 MiB (0%)
Language                                 : Swedish
Default                                  : No
Forced                                   : No

Subtitle #23
ID                                       : 25
Format                                   : PGS
Muxing mode                              : zlib
Codec ID                                 : S_HDMV/PGS
Codec ID/Info                            : Picture based subtitle format used on BDs/HD-DVDs
Duration                                 : 2 h 7 min
Bit rate                                 : 20.1 kb/s
Count of elements                        : 2116
Stream size                              : 18.4 MiB (0%)
Language                                 : Thai
Default                                  : No
Forced                                   : No

Subtitle #24
ID                                       : 26
Format                                   : PGS
Muxing mode                              : zlib
Codec ID                                 : S_HDMV/PGS
Codec ID/Info                            : Picture based subtitle format used on BDs/HD-DVDs
Duration                                 : 2 h 7 min
Bit rate                                 : 20.6 kb/s
Count of elements                        : 2136
Stream size                              : 18.8 MiB (0%)
Language                                 : Turkish
Default                                  : No
Forced                                   : No

Subtitle #25
ID                                       : 27
Format                                   : PGS
Muxing mode                              : zlib
Codec ID                                 : S_HDMV/PGS
Codec ID/Info                            : Picture based subtitle format used on BDs/HD-DVDs
Duration                                 : 2 h 9 min
Bit rate                                 : 32.9 kb/s
Count of elements                        : 3146
Stream size                              : 30.4 MiB (0%)
Language                                 : Japanese
Default                                  : No
Forced                                   : No

Subtitle #26
ID                                       : 28
Format                                   : PGS
Muxing mode                              : zlib
Codec ID                                 : S_HDMV/PGS
Codec ID/Info                            : Picture based subtitle format used on BDs/HD-DVDs
Duration                                 : 2 h 3 min
Bit rate                                 : 30.7 kb/s
Count of elements                        : 3006
Stream size                              : 27.0 MiB (0%)
Language                                 : Japanese
Default                                  : No
Forced                                   : No

Subtitle #27
ID                                       : 29
Format                                   : UTF-8
Codec ID                                 : S_TEXT/UTF8
Codec ID/Info                            : UTF-8 Plain Text
Duration                                 : 1 h 59 min
Bit rate                                 : 57 b/s
Count of elements                        : 1068
Stream size                              : 50.2 KiB (0%)
Language                                 : Hebrew
Default                                  : No
Forced                                   : No

Subtitle #28
ID                                       : 30
Format                                   : UTF-8
Codec ID                                 : S_TEXT/UTF8
Codec ID/Info                            : UTF-8 Plain Text
Duration                                 : 1 h 58 min
Bit rate                                 : 62 b/s
Count of elements                        : 1056
Stream size                              : 54.2 KiB (0%)
Language                                 : Persian
Default                                  : No
Forced                                   : No

Menu
00:00:00.000                             : :Chapter 1
00:03:55.235                             : :Chapter 2
00:07:32.952                             : :Chapter 3
00:10:19.785                             : :Chapter 4
00:14:44.300                             : :Chapter 5
00:17:58.577                             : :Chapter 6
00:23:33.078                             : :Chapter 7
00:30:06.137                             : :Chapter 8
00:35:35.466                             : :Chapter 9
00:39:34.038                             : :Chapter 10
00:42:58.742                             : :Chapter 11
00:46:43.133                             : :Chapter 12
00:49:02.522                             : :Chapter 13
00:51:53.527                             : :Chapter 14
00:58:00.560                             : :Chapter 15
01:00:19.032                             : :Chapter 16
01:02:29.746                             : :Chapter 17
01:08:00.826                             : :Chapter 18
01:10:29.141                             : :Chapter 19
01:14:33.719                             : :Chapter 20
01:18:23.281                             : :Chapter 21
01:23:08.900                             : :Chapter 22
01:25:55.733                             : :Chapter 23
01:29:13.264                             : :Chapter 24
01:31:51.589                             : :Chapter 25
01:36:51.388                             : :Chapter 26
01:41:55.192                             : :Chapter 27
01:44:53.036                             : :Chapter 28
01:48:06.563                             : :Chapter 29
01:51:30.767                             : :Chapter 30
01:55:05.815                             : :Chapter 31
01:57:31.127                             : :Chapter 32
02:00:12.288                             : :Chapter 33

Source Information
Release:The.Matrix.Revolutions.2003.2160p.BluRay.x265.10bit.SDR.DTS-HD.MA.TrueHD.7.1.Atmos-SWTYBLZ  (42.8 GB)

Category:Movies > UltraHD/4K
Lang:English  English
Total Size:6.05 GB
Info Hash:e408474d728a674a0f10ff17e058b2f750ecee9a
Added By:UTR
Date Added:07-01-2019 13:54:17

Files

File List: 
 File Size
The Matrix Revolutions 2003 (2160p x265 10bit FS79 Joy).mkv6.05 GB



Comments

There are currently no comments. Be the first one to write something !