kgf sarkar Manikarnika star trek discovery thakrey Xxx kedarnath thackeray malayalam the accidental prime minister supernatural evo aquaman telugu odiyan the flash why cheat india great british bake off s09e10 vikings tushy 18.12 1080p.mp4-ktr charlie chaplin 2 1080P Hindi mirzapur ettv mr majnu the grand tour 2018 ita Adanga Maru Tin Star etmovies dtone uri EVO malayalam 2018 movies AQUAMAN ita Bumblebee ethd ITA zero etrg venom f2 1080p 2018 maari 2 Game Of Thrones viswasam TamilRockers Kannada simmba Kannada ddr simbha tushyraw 1080p.mp4-ktr mortal engines simba petta DTOne uri the surgical strike kung fu the legend Young justice tamil robot 2.0 it brazzers it 2017 2.0 thakre Njan Prakashan glass fgt bohemian rhapsody Star Trek Discovery S02E02 
Warning! Use a VPN When Downloading Torrents!
Your IP Address is 52.91.221.160. Location is United States
Your Internet Provider is tracking your torrent activity! Hide your IP ADDRESS with a VPN!
We strongly recommend using ExpressVPN to anonymize your torrenting. 30 Day Money Back Guarantee!
Try it Now!
ETTV Recommended TV Shows
Pretty.Little.Liars.The.Perfectionists.S01E01.WEB.x264-TBS[ettv] torrent
Whiskey.Cavalier.S01E04.HDTV.x264-KILLERS[ettv] torrent
Riverdale.US.S03E16.HDTV.x264-SVA[ettv] torrent
SEAL.Team.S02E14.HDTV.x264-SVA[ettv] torrent
The.Magicians.US.S04E09.HDTV.x264-SVA[ettv] torrent
Survivor.S38E05E06.HDTV.x264-WRCR torrent

ETTV Recommended SD
Boo.2019.HDRip.XViD-ETRG torrent
The.Mule.2018.HDRip.XViD-ETRG torrent
Bumblebee.2018.HDRip.XViD-ETRG torrent
A.Dogs.Way.Home.2019.HC.HDRip.XviD.AC3-EVO torrent

ETTV Recommended HD
The.Mule.2018.1080p.BluRay.x264-DRONES[EtHD] torrent
A.Dogs.Way.Home.2019.720p.HC.HDRip.x264.AC3-ETRG torrent
Abduction.2019.1080p.WEB-DL.H264.AC3-EVO[EtHD] torrent
The Quake 2018.MULTi.Blu-ray.1080p.HEVC.DTS-TrueHD.5.1-DDR torrent

ETTV Recommended UHD
The Mule 2018.2160p.UHDrip.HEVC.HDR.DDP.5.1-DDR torrent
Bumblebee 2018.2160p.UHDrip.HEVC.SDR.DDP.5.1-DDR torrent
Lord of War 2005.UHD.2160p.Blu-ray.HEVC.HDR.Atmos.7.1-DDR torrent
Dog.Soldiers.2002.UHD.2160p.HEVC.SDR-DDR torrent

ETTV Recommended Cam
Captive State 2019.HDCAM.x264.AC3-ETRG torrent
Wonder Park 2019 HDCAM x264 AC3-ETRG torrent
Alita.Battle.Angel.2019.HDTS x264.AC3-ETRG torrent
US 2019 720p HDCAM-1XBET torrent

ETTV Recommended Foreign
Talav.2017.Marathi.1080p.AMZN.WeB.DL.H264.DDP.5.1.Dus torrent
Balakrishnudu (2017) 720p UNCUT HDRip x264 Eng Subs [Dual Audio] [Hindi DD 2.0 - Telugu 5.1] Exclusive By -=!Dr.STAR!=- torrent
Simmba.2018.1080p.WEB-DL.AVC.AAC.ESub.DDR torrent
Batti Gul Meter Chalu.2018.720p.DvDRip.x264.DD.5.1-DDR torrent


Download Torrent "The Cool Kids S01E10 (1080p AMZN WEB-DL x265 HEVC 10bit AC3 5.1 Qman) [UTR]"

IMDB Details
Description:

N/A

Genre:

N/A

Download Torrent (Magnet)
Download Torrent (File)
Seeds: 99
Leechers: 37
Completed: 482 
Last Checked: 08-01-2019 03:24:42


Loading...
Details
Title:The Cool Kids S01E10 (1080p AMZN WEB-DL x265 HEVC 10bit AC3 5.1 Qman) [UTR]
Description:
[CENTER][img="https://i.postimg.cc/hjkyHjgc/pirate-shark-banner-with-forum-site-address-www-imagesplitter-n.png" alt=""][img="https://i.postimg.cc/CLHPQS2p/pirate-shark-banner-with-forum-site-address-www-imagesplitter-n.png" alt=""]
[img="https://i.postimg.cc/13vWyMPW/pirate-shark-banner-with-forum-site-address-www-imagesplitter-n.png" alt=""][img="https://i.postimg.cc/yNWLx987/pirate-shark-banner-with-forum-site-address-www-imagesplitter-n.png" alt=""]






Media Information

Media InformationGeneral
Format                                   : Matroska
Format version                           : Version 4 / Version 2
File size                                : 574 MiB
Duration                                 : 21 min 42 s
Overall bit rate                         : 3 696 kb/s
Encoded date                             : UTC 2019-01-07 18:36:09
Writing application                      : mkvmerge v30.1.0 ('Forever And More') 64-bit
Writing library                          : libebml v1.3.6 + libmatroska v1.4.9

Video
ID                                       : 1
Format                                   : HEVC
Format/Info                              : High Efficiency Video Coding
Format profile                           : Main [email protected]@Main
Codec ID                                 : V_MPEGH/ISO/HEVC
Duration                                 : 21 min 40 s
Bit rate                                 : 3 060 kb/s
Width                                    : 1 920 pixels
Height                                   : 1 080 pixels
Display aspect ratio                     : 16:9
Frame rate mode                          : Constant
Frame rate                               : 23.976 (24000/1001) FPS
Color space                              : YUV
Chroma subsampling                       : 4:2:0
Bit depth                                : 10 bits
Bits/(Pixel*Frame)                       : 0.062
Stream size                              : 474 MiB (83%)
Writing library                          : x265 3.0_RC+2-8f1c154aae5e:[Windows][GCC 8.2.0][64 bit] 10bit
Encoding settings                        : cpuid=1111039 / frame-threads=2 / numa-pools=4 / wpp / no-pmode / no-pme / no-psnr / no-ssim / log-level=2 / input-csp=1 / input-res=1920x1080 / interlace=0 / total-frames=31184 / level-idc=0 / high-tier=1 / uhd-bd=0 / ref=4 / no-allow-non-conformance / no-repeat-headers / annexb / no-aud / no-hrd / info / hash=0 / no-temporal-layers / open-gop / min-keyint=23 / keyint=250 / gop-lookahead=0 / bframes=8 / b-adapt=2 / b-pyramid / bframe-bias=0 / rc-lookahead=50 / lookahead-slices=4 / scenecut=40 / radl=0 / no-splice / no-intra-refresh / ctu=64 / min-cu-size=8 / no-rect / no-amp / max-tu-size=32 / tu-inter-depth=1 / tu-intra-depth=1 / limit-tu=0 / rdoq-level=2 / dynamic-rd=0.00 / no-ssim-rd / signhide / no-tskip / nr-intra=0 / nr-inter=0 / no-constrained-intra / no-strong-intra-smoothing / max-merge=3 / limit-refs=3 / limit-modes / me=3 / subme=3 / merange=57 / temporal-mvp / weightp / no-weightb / no-analyze-src-pics / deblock=1:1 / no-sao / no-sao-non-deblock / rd=4 / no-early-skip / no-rskip / no-fast-intra / no-tskip-fast / no-cu-lossless / no-b-intra / no-splitrd-skip / rdpenalty=0 / psy-rd=1.40 / psy-rdoq=1.00 / no-rd-refine / no-lossless / cbqpoffs=0 / crqpoffs=0 / rc=crf / crf=21.0 / qcomp=0.60 / qpstep=4 / stats-write=0 / stats-read=0 / ipratio=1.40 / pbratio=1.30 / aq-mode=2 / aq-strength=1.00 / cutree / zone-count=0 / no-strict-cbr / qg-size=32 / no-rc-grain / qpmax=69 / qpmin=0 / no-const-vbv / sar=0 / overscan=0 / videoformat=5 / range=0 / colorprim=2 / transfer=2 / colormatrix=2 / chromaloc=0 / display-window=0 / max-cll=0,0 / min-luma=0 / max-luma=1023 / log2-max-poc-lsb=8 / vui-timing-info / vui-hrd-info / slices=1 / no-opt-qp-pps / no-opt-ref-list-length-pps / no-multi-pass-opt-rps / scenecut-bias=0.05 / no-opt-cu-delta-qp / no-aq-motion / no-hdr / no-hdr-opt / no-dhdr10-opt / no-idr-recovery-sei / analysis-reuse-level=5 / scale-factor=0 / refine-intra=0 / refine-inter=0 / refine-mv=0 / refine-ctu-distortion=0 / no-limit-sao / ctu-info=0 / no-lowpass-dct / refine-analysis-type=0 / copy-pic=1 / max-ausize-factor=1.0 / no-dynamic-refine / no-single-sei / no-hevc-aq / qp-adaptation-range=1.00
Language                                 : English
Default                                  : Yes
Forced                                   : No

Audio
ID                                       : 2
Format                                   : E-AC-3
Format/Info                              : Enhanced Audio Coding 3
Format settings, Endianness              : Big
Codec ID                                 : A_EAC3
Duration                                 : 21 min 40 s
Bit rate mode                            : Constant
Bit rate                                 : 640 kb/s
Channel(s)                               : 6 channels
Channel positions                        : Front: L C R, Side: L R, LFE
Sampling rate                            : 48.0 kHz
Frame rate                               : 187.500 FPS (256 spf)
Compression mode                         : Lossy
Delay relative to video                  : 22 ms
Stream size                              : 99.2 MiB (17%)
Language                                 : English
Default                                  : Yes
Forced                                   : No

Subtitle
ID                                       : 3
Format                                   : UTF-8
Codec ID                                 : S_TEXT/UTF8
Codec ID/Info                            : UTF-8 Plain Text
Duration                                 : 21 min 42 s
Bit rate                                 : 98 b/s
Count of elements                        : 528
Stream size                              : 15.7 KiB (0%)
Language                                 : English
Default                                  : Yes
Forced                                   : No



Source InformationRelease:
Unknown Source/NO-GROUP

[/CENTER]

Category:TV > HEVC/x265
Lang:English  English
Total Size:574 MB
Info Hash:51b1124923ec76bfaef19714b23250cf7f418e0a
Added By:UTR
Date Added:08-01-2019 03:24:39

Files

File List: 
 File Size
The.Cool.Kids.S01E10.1080p.AMZN.WEB-DL.x265.10bit.EAC3.6.0-Qman[UTR].mkv574 MB



Comments

There are currently no comments. Be the first one to write something !