italian The Orville hindi game of thrones young sheldon S02E13 big bang theory The punisher s02 gotham bohemian rhapsody ita split The Good Place s03e12 great british bake off s09e10 2018 ita the big bang theory S12E13 the punisher the good place fgt star trek star trek discovery s02e01 star trek discovery s02 The flash bumblebee tushy 18.12 1080p.mp4-ktr the big bang theory brooklyn nine nine s06e02 tushyraw 1080p.mp4-ktr supernatural ita complete season anal Venom Modern Family evo lesbian ncis Xxx GREYS ANATOMY DTONE etmovies bohemian rhapsody ıt 2017 ethd EtHD the grand tour the orville s02e04 etrg true detective gotham s05e03 mom ddr aquaman you star trek discovery español star trek discovery 1080P 2160p a star is born Young sheldon Supernatural S14E10 windows 10 it brooklyn nine nine ettv punisher AQUAMAN ita dtone arrow arrow español orville vikings S05E18 vikings 
Warning! Use a VPN When Downloading Torrents!
Your IP Address is 18.205.246.238. Location is United States
Your Internet Provider is tracking your torrent activity! Hide your IP ADDRESS with a VPN!
We strongly recommend using ExpressVPN to anonymize your torrenting. 30 Day Money Back Guarantee!
Try it Now!
ETTV Recommended TV Shows
The.Blacklist.S06E04.HDTV.x264-BATV[ettv] torrent
Blindspot.S04E10.HDTV.x264-SVA[ettv] torrent
MacGyver.2016.S03E13.HDTV.x264-SVA[ettv] torrent
Hawaii.Five-0.2010.S09E13.HDTV.x264-BATV[ettv] torrent

ETTV Recommended SD
Deadly.Switch.2019.HDRip.XViD-ETRG torrent
Close.2019.HDRip.XViD-ETRG torrent
IO.2019.HDRip.XViD-ETRG torrent
Bumblebee.2018.HC.HDRip.XViD.AC3-ETRG torrent

ETTV Recommended HD
All The Devil\'s Men 2018 Multi 1080p Blu Ray HEVC.DTS-HD MA.5.1-DTOne torrent
Boy Erased 2018 Multi.1080p.Bluray.HEVCDTS-HDMA.5.1-DTOne torrent
Indivisible 2018 Multi.1080p.Bluray.HEVC.DTS-HDMA.5.1-DTOne torrent
Take The Ball Pass The Ball 2018 1080p.Bluray.HEVC.DTS-HDMA.5.1-DTOne torrent

ETTV Recommended UHD
Star.Trek.Into.Darkness.2013.Multi.2160p.UHD.Bluray.x265.HDR.Atmos.7.1.[En+Hi+]-DTOne torrent
Johnny English Strikes Again 2018.UHD.2160p.Blu-ray.x265.DTS-HD.MA.7.1-DTOne torrent
The Hate U Give 2018.Multi.UHD.BluRay.2160p.x265.DTS-HD.MA.7.1-DTOne torrent
Future Man 2018Multi..UHD.2160p.Bluray.x265.HDR.Atmos.7.1-DTone torrent

ETTV Recommended Cam
How to Train Your Dragon 3 2019 HDCAM XViD AC3-ETRG torrent
Mary Poppins Returns 2018 NEW HDTS x264 AC3-ETRG torrent
Second Act 2018 HDCAM x264 AC3-ETRG torrent
Glass 2019.HDCAM.XViD.AC3-ETRG torrent

ETTV Recommended Foreign
Big Brother 2018 BluRay 1080p AAC x264-MPAD[EtHD] torrent
Padi Padi Leche Manasu.2018.1080p.AMZN.WeB.DL.H264.DDP.5.1.DTOne torrent
No Strings Attached (2011) 1080p Multi AMZN WEB-DL DDP 5.1 [En+Hi] MSub - DTOne torrent
Soni (2019) 1080p NF WEB-DL DDP 5.1 MSub - DTOne torrent


Download Torrent "Young Sheldon S02E10 (1080p AMZN WEB-DL x265 HEVC 10bit AAC 5.1 Joy) [UTR]"

IMDB Details
Description:

N/A

Genre:

N/A

Download Torrent (Magnet)
Download Torrent (File)
Seeds: 169
Leechers: 47
Completed: 2,424 
Last Checked: 08-01-2019 03:26:02


Loading...
Details
Title:Young Sheldon S02E10 (1080p AMZN WEB-DL x265 HEVC 10bit AAC 5.1 Joy) [UTR]
Description:
[CENTER]







Media Information

[B]Media Information[/B][B]General[/B]
Format                                   : Matroska
Format version                           : Version 4 / Version 2
File size                                : 191 MiB
Duration                                 : 19 min 18 s
Overall bit rate                         : 1 385 kb/s
Movie name                               : Young Sheldon S02E10 A Stunted Childhood and a Can of Fancy Mixed Nuts  (1080p x265 10bit Joy)
Encoded date                             : UTC 2019-01-07 22:36:16
Writing application                      : mkvmerge v24.0.0 ('Beyond The Pale') 64-bit
Writing library                          : libebml v1.3.6 + libmatroska v1.4.9
Writing frontend                         : StaxRip v1.8.2.0, a JoyBell Encode

[B]Video[/B]
ID                                       : 1
Format                                   : HEVC
Format/Info                              : High Efficiency Video Coding
Format profile                           : Main [email protected]@Main
Codec ID                                 : V_MPEGH/ISO/HEVC
Duration                                 : 19 min 18 s
Bit rate                                 : 1 199 kb/s
Width                                    : 1 920 pixels
Height                                   : 1 080 pixels
Display aspect ratio                     : 16:9
Frame rate mode                          : Constant
Frame rate                               : 23.976 (24000/1001) FPS
Color space                              : YUV
Chroma subsampling                       : 4:2:0
Bit depth                                : 10 bits
Bits/(Pixel*Frame)                       : 0.024
Stream size                              : 166 MiB (87%)
Writing library                          : x265 2.9+15-81373aab81df:[Windows][MSVC 1916][64 bit] 10bit
Encoding settings                        : cpuid=1111039 / frame-threads=3 / numa-pools=8 / wpp / no-pmode / no-pme / no-psnr / ssim / log-level=2 / input-csp=1 / input-res=1920x1080 / interlace=0 / total-frames=27772 / level-idc=0 / high-tier=1 / uhd-bd=0 / ref=4 / no-allow-non-conformance / no-repeat-headers / annexb / no-aud / no-hrd / info / hash=0 / no-temporal-layers / open-gop / min-keyint=23 / keyint=250 / gop-lookahead=0 / bframes=4 / b-adapt=2 / b-pyramid / bframe-bias=0 / rc-lookahead=80 / lookahead-slices=4 / scenecut=40 / radl=0 / no-splice / no-intra-refresh / ctu=64 / min-cu-size=8 / no-rect / no-amp / max-tu-size=32 / tu-inter-depth=1 / tu-intra-depth=1 / limit-tu=0 / rdoq-level=2 / dynamic-rd=0.00 / ssim-rd / signhide / no-tskip / nr-intra=0 / nr-inter=0 / no-constrained-intra / strong-intra-smoothing / max-merge=3 / limit-refs=3 / limit-modes / me=3 / subme=3 / merange=57 / temporal-mvp / weightp / no-weightb / no-analyze-src-pics / deblock=0:0 / sao / no-sao-non-deblock / rd=4 / no-early-skip / rskip / no-fast-intra / no-tskip-fast / no-cu-lossless / no-b-intra / no-splitrd-skip / rdpenalty=0 / psy-rd=0.00 / psy-rdoq=1.50 / no-rd-refine / no-lossless / cbqpoffs=0 / crqpoffs=0 / rc=abr / bitrate=1200 / qcomp=0.60 / qpstep=4 / stats-write=0 / stats-read=2 / cplxblur=20.0 / qblur=0.5 / ipratio=1.40 / pbratio=1.30 / aq-mode=1 / aq-strength=0.80 / cutree / zone-count=0 / no-strict-cbr / qg-size=32 / no-rc-grain / qpmax=69 / qpmin=0 / no-const-vbv / sar=0 / overscan=0 / videoformat=5 / range=0 / colorprim=2 / transfer=2 / colormatrix=2 / chromaloc=0 / display-window=0 / max-cll=0,0 / min-luma=0 / max-luma=1023 / log2-max-poc-lsb=8 / vui-timing-info / vui-hrd-info / slices=1 / no-opt-qp-pps / no-opt-ref-list-length-pps / multi-pass-opt-rps / scenecut-bias=0.05 / no-opt-cu-delta-qp / no-aq-motion / no-hdr / no-hdr-opt / no-dhdr10-opt / no-idr-recovery-sei / analysis-reuse-level=10 / scale-factor=0 / refine-intra=0 / refine-inter=0 / refine-mv=0 / limit-sao / ctu-info=0 / no-lowpass-dct / refine-mv-type=0 / copy-pic=1 / max-ausize-factor=1.0 / no-dynamic-refine / no-single-sei
Default                                  : Yes
Forced                                   : No

[B]Audio[/B]
ID                                       : 2
Format                                   : AAC
Format/Info                              : Advanced Audio Codec
Format profile                           : HE-AAC / LC
Codec ID                                 : A_AAC
Duration                                 : 19 min 18 s
Bit rate                                 : 184 kb/s
Channel(s)                               : 6 channels
Channel positions                        : Front: L C R, Side: L R, LFE
Sampling rate                            : 48.0 kHz / 24.0 kHz
Frame rate                               : 23.438 FPS (1024 spf)
Compression mode                         : Lossy
Delay relative to video                  : 31 ms
Stream size                              : 25.4 MiB (13%)
Language                                 : English
Default                                  : No
Forced                                   : No

[B]Subtitle[/B]
ID                                       : 3
Format                                   : UTF-8
Codec ID                                 : S_TEXT/UTF8
Codec ID/Info                            : UTF-8 Plain Text
Duration                                 : 18 min 45 s
Bit rate                                 : 88 b/s
Count of elements                        : 422
Stream size                              : 12.1 KiB (0%)
Language                                 : English
Default                                  : No
Forced                                   : No

[B]Menu[/B]
00:00:00.000                             : en:Previously On
00:00:33.000                             : en:Scene 2
00:02:43.000                             : en:Title Sequence
00:03:03.000                             : en:Scene 4
00:09:52.000                             : en:Scene 5
00:15:33.000                             : en:Scene 6
00:18:50.000                             : en:End Credits



[B]Source Information[/B]Release:
Young.Sheldon.S02E10.A.Stunted.Childhood.and.a.Can.of.Fancy.Mixed.Nuts.1080p.AMZN.WEB-DL.DDP5.1.H.264-NTb.mkv (942.26 MBs)

[/CENTER]

Category:TV > HEVC/x265
Lang:English  English
Total Size:191 MB
Info Hash:ff21650f5d652a150dc764b729fc7930136dc283
Added By:UTR
Date Added:08-01-2019 03:25:54

Files

File List: 
 File Size
Young Sheldon S02E10 A Stunted Childhood and a Can of Fancy Mixed Nuts (1080p x265 10bit S92 Joy).mkv191 MB



Comments

There are currently no comments. Be the first one to write something !