kgf sarkar Manikarnika star trek discovery thakrey Xxx kedarnath thackeray malayalam the accidental prime minister supernatural evo aquaman telugu odiyan the flash why cheat india great british bake off s09e10 vikings tushy 18.12 1080p.mp4-ktr charlie chaplin 2 1080P Hindi mirzapur ettv mr majnu the grand tour 2018 ita Adanga Maru Tin Star etmovies dtone uri EVO malayalam 2018 movies AQUAMAN ita Bumblebee ethd ITA zero etrg venom f2 1080p 2018 maari 2 Game Of Thrones viswasam TamilRockers Kannada simmba Kannada ddr simbha tushyraw 1080p.mp4-ktr mortal engines simba petta DTOne uri the surgical strike kung fu the legend Young justice tamil robot 2.0 it brazzers it 2017 2.0 thakre Njan Prakashan glass fgt bohemian rhapsody Star Trek Discovery S02E02 
Warning! Use a VPN When Downloading Torrents!
Your IP Address is 52.91.221.160. Location is United States
Your Internet Provider is tracking your torrent activity! Hide your IP ADDRESS with a VPN!
We strongly recommend using ExpressVPN to anonymize your torrenting. 30 Day Money Back Guarantee!
Try it Now!
ETTV Recommended TV Shows
Pretty.Little.Liars.The.Perfectionists.S01E01.WEB.x264-TBS[ettv] torrent
Whiskey.Cavalier.S01E04.HDTV.x264-KILLERS[ettv] torrent
Riverdale.US.S03E16.HDTV.x264-SVA[ettv] torrent
SEAL.Team.S02E14.HDTV.x264-SVA[ettv] torrent
The.Magicians.US.S04E09.HDTV.x264-SVA[ettv] torrent
Survivor.S38E05E06.HDTV.x264-WRCR torrent

ETTV Recommended SD
Boo.2019.HDRip.XViD-ETRG torrent
The.Mule.2018.HDRip.XViD-ETRG torrent
Bumblebee.2018.HDRip.XViD-ETRG torrent
A.Dogs.Way.Home.2019.HC.HDRip.XviD.AC3-EVO torrent

ETTV Recommended HD
The.Mule.2018.1080p.BluRay.x264-DRONES[EtHD] torrent
A.Dogs.Way.Home.2019.720p.HC.HDRip.x264.AC3-ETRG torrent
Abduction.2019.1080p.WEB-DL.H264.AC3-EVO[EtHD] torrent
The Quake 2018.MULTi.Blu-ray.1080p.HEVC.DTS-TrueHD.5.1-DDR torrent

ETTV Recommended UHD
The Mule 2018.2160p.UHDrip.HEVC.HDR.DDP.5.1-DDR torrent
Bumblebee 2018.2160p.UHDrip.HEVC.SDR.DDP.5.1-DDR torrent
Lord of War 2005.UHD.2160p.Blu-ray.HEVC.HDR.Atmos.7.1-DDR torrent
Dog.Soldiers.2002.UHD.2160p.HEVC.SDR-DDR torrent

ETTV Recommended Cam
Captive State 2019.HDCAM.x264.AC3-ETRG torrent
Wonder Park 2019 HDCAM x264 AC3-ETRG torrent
Alita.Battle.Angel.2019.HDTS x264.AC3-ETRG torrent
US 2019 720p HDCAM-1XBET torrent

ETTV Recommended Foreign
Talav.2017.Marathi.1080p.AMZN.WeB.DL.H264.DDP.5.1.Dus torrent
Balakrishnudu (2017) 720p UNCUT HDRip x264 Eng Subs [Dual Audio] [Hindi DD 2.0 - Telugu 5.1] Exclusive By -=!Dr.STAR!=- torrent
Simmba.2018.1080p.WEB-DL.AVC.AAC.ESub.DDR torrent
Batti Gul Meter Chalu.2018.720p.DvDRip.x264.DD.5.1-DDR torrent


Download Torrent "Young Sheldon S02E11 (1080p AMZN WEB-DL x265 HEVC 10bit AAC 5.1 Joy) [UTR]"

IMDB Details
Description:

N/A

Genre:

N/A

Download Torrent (Magnet)
Download Torrent (File)
Seeds: 313
Leechers: 46
Completed: 3,414 
Last Checked: 08-01-2019 03:26:07


Loading...
Details
Title:Young Sheldon S02E11 (1080p AMZN WEB-DL x265 HEVC 10bit AAC 5.1 Joy) [UTR]
Description:
[CENTER][img="https://i.postimg.cc/hjkyHjgc/pirate-shark-banner-with-forum-site-address-www-imagesplitter-n.png" alt=""][img="https://i.postimg.cc/CLHPQS2p/pirate-shark-banner-with-forum-site-address-www-imagesplitter-n.png" alt=""]
[img="https://i.postimg.cc/13vWyMPW/pirate-shark-banner-with-forum-site-address-www-imagesplitter-n.png" alt=""][img="https://i.postimg.cc/yNWLx987/pirate-shark-banner-with-forum-site-address-www-imagesplitter-n.png" alt=""]






Media Information

Media InformationGeneral
Format                                   : Matroska
Format version                           : Version 4 / Version 2
File size                                : 197 MiB
Duration                                 : 19 min 54 s
Overall bit rate                         : 1 383 kb/s
Movie name                               : Young Sheldon S02E11 A Race of Superhumans and a Letter to Alf  (1080p x265 10bit Joy)
Encoded date                             : UTC 2019-01-07 08:29:16
Writing application                      : mkvmerge v24.0.0 ('Beyond The Pale') 64-bit
Writing library                          : libebml v1.3.6 + libmatroska v1.4.9
Writing frontend                         : StaxRip v1.8.2.0, a JoyBell Encode

Video
ID                                       : 1
Format                                   : HEVC
Format/Info                              : High Efficiency Video Coding
Format profile                           : Main [email protected]@Main
Codec ID                                 : V_MPEGH/ISO/HEVC
Duration                                 : 19 min 54 s
Bit rate                                 : 1 197 kb/s
Width                                    : 1 920 pixels
Height                                   : 1 080 pixels
Display aspect ratio                     : 16:9
Frame rate mode                          : Constant
Frame rate                               : 23.976 (24000/1001) FPS
Color space                              : YUV
Chroma subsampling                       : 4:2:0
Bit depth                                : 10 bits
Bits/(Pixel*Frame)                       : 0.024
Stream size                              : 171 MiB (87%)
Writing library                          : x265 2.9+15-81373aab81df:[Windows][MSVC 1916][64 bit] 10bit
Encoding settings                        : cpuid=1111039 / frame-threads=3 / numa-pools=8 / wpp / no-pmode / no-pme / no-psnr / ssim / log-level=2 / input-csp=1 / input-res=1920x1080 / interlace=0 / total-frames=28648 / level-idc=0 / high-tier=1 / uhd-bd=0 / ref=4 / no-allow-non-conformance / no-repeat-headers / annexb / no-aud / no-hrd / info / hash=0 / no-temporal-layers / open-gop / min-keyint=23 / keyint=250 / gop-lookahead=0 / bframes=4 / b-adapt=2 / b-pyramid / bframe-bias=0 / rc-lookahead=80 / lookahead-slices=4 / scenecut=40 / radl=0 / no-splice / no-intra-refresh / ctu=64 / min-cu-size=8 / no-rect / no-amp / max-tu-size=32 / tu-inter-depth=1 / tu-intra-depth=1 / limit-tu=0 / rdoq-level=2 / dynamic-rd=0.00 / ssim-rd / signhide / no-tskip / nr-intra=0 / nr-inter=0 / no-constrained-intra / strong-intra-smoothing / max-merge=3 / limit-refs=3 / limit-modes / me=3 / subme=3 / merange=57 / temporal-mvp / weightp / no-weightb / no-analyze-src-pics / deblock=0:0 / sao / no-sao-non-deblock / rd=4 / no-early-skip / rskip / no-fast-intra / no-tskip-fast / no-cu-lossless / no-b-intra / no-splitrd-skip / rdpenalty=0 / psy-rd=0.00 / psy-rdoq=1.50 / no-rd-refine / no-lossless / cbqpoffs=0 / crqpoffs=0 / rc=abr / bitrate=1200 / qcomp=0.60 / qpstep=4 / stats-write=0 / stats-read=2 / cplxblur=20.0 / qblur=0.5 / vbv-maxrate=2400 / vbv-bufsize=6400 / vbv-init=0.9 / ipratio=1.40 / pbratio=1.30 / aq-mode=3 / aq-strength=0.80 / cutree / zone-count=0 / no-strict-cbr / qg-size=32 / no-rc-grain / qpmax=69 / qpmin=0 / no-const-vbv / sar=0 / overscan=0 / videoformat=5 / range=0 / colorprim=2 / transfer=2 / colormatrix=2 / chromaloc=0 / display-window=0 / max-cll=0,0 / min-luma=0 / max-luma=1023 / log2-max-poc-lsb=8 / vui-timing-info / vui-hrd-info / slices=1 / no-opt-qp-pps / no-opt-ref-list-length-pps / multi-pass-opt-rps / scenecut-bias=0.05 / no-opt-cu-delta-qp / no-aq-motion / no-hdr / no-hdr-opt / no-dhdr10-opt / no-idr-recovery-sei / analysis-reuse-level=10 / scale-factor=0 / refine-intra=0 / refine-inter=0 / refine-mv=0 / limit-sao / ctu-info=0 / no-lowpass-dct / refine-mv-type=0 / copy-pic=1 / max-ausize-factor=1.0 / no-dynamic-refine / no-single-sei
Default                                  : Yes
Forced                                   : No

Audio
ID                                       : 2
Format                                   : AAC
Format/Info                              : Advanced Audio Codec
Format profile                           : HE-AACv2 / HE-AAC / LC
Codec ID                                 : A_AAC
Duration                                 : 19 min 54 s
Bit rate                                 : 184 kb/s
Channel(s)                               : 6 channels
Channel(s)_Original                      : 2 channels / 20 channels / 20 channels
Channel positions                        : Front: L R / , Side: 12, Back: 7, LFE / , Side: 12, Back: 7, LFE
Sampling rate                            : 48.0 kHz / 48.0 kHz / 24.0 kHz
Frame rate                               : 23.438 FPS (1024 spf)
Compression mode                         : Lossy
Delay relative to video                  : 31 ms
Stream size                              : 26.2 MiB (13%)
Language                                 : English
Default                                  : No
Forced                                   : No

Subtitle
ID                                       : 3
Format                                   : UTF-8
Codec ID                                 : S_TEXT/UTF8
Codec ID/Info                            : UTF-8 Plain Text
Duration                                 : 19 min 26 s
Bit rate                                 : 101 b/s
Count of elements                        : 439
Stream size                              : 14.4 KiB (0%)
Language                                 : English
Default                                  : No
Forced                                   : No

Menu
00:00:00.000                             : en:Previously On
00:00:33.000                             : en:Scene 2
00:01:26.000                             : en:Title Sequence
00:01:42.000                             : en:Scene 4
00:07:42.000                             : en:Scene 5
00:15:59.000                             : en:Scene 6
00:19:27.000                             : en:End Credits



Source InformationRelease:
Young.Sheldon.S02E11.A.Race.of.Superhumans.and.a.Letter.to.Alf.1080p.AMZN.WEB-DL.DDP5.1.H.264-NTb.mkv (955.73 MBs)

[/CENTER]

Category:TV > HEVC/x265
Lang:English  English
Total Size:197 MB
Info Hash:2e0a960f0dc082ceb2276b3b4a32012354ca0ba4
Added By:UTR
Date Added:08-01-2019 03:26:03

Files

File List: 
 File Size
Young Sheldon S02E11 A Race of Superhumans and a Letter to Alf (1080p x265 10bit S95 Joy).mkv197 MB



Comments

There are currently no comments. Be the first one to write something !