italian The Orville hindi game of thrones young sheldon S02E13 big bang theory The punisher s02 gotham bohemian rhapsody ita split The Good Place s03e12 great british bake off s09e10 2018 ita the big bang theory S12E13 the punisher the good place fgt star trek star trek discovery s02e01 star trek discovery s02 The flash bumblebee tushy 18.12 1080p.mp4-ktr the big bang theory brooklyn nine nine s06e02 tushyraw 1080p.mp4-ktr supernatural ita complete season anal Venom Modern Family evo lesbian ncis Xxx GREYS ANATOMY DTONE etmovies bohemian rhapsody ıt 2017 ethd EtHD the grand tour the orville s02e04 etrg true detective gotham s05e03 mom ddr aquaman you star trek discovery español star trek discovery 1080P 2160p a star is born Young sheldon Supernatural S14E10 windows 10 it brooklyn nine nine ettv punisher AQUAMAN ita dtone arrow arrow español orville vikings S05E18 vikings 
Warning! Use a VPN When Downloading Torrents!
Your IP Address is 18.205.246.238. Location is United States
Your Internet Provider is tracking your torrent activity! Hide your IP ADDRESS with a VPN!
We strongly recommend using ExpressVPN to anonymize your torrenting. 30 Day Money Back Guarantee!
Try it Now!
ETTV Recommended TV Shows
The.Blacklist.S06E04.HDTV.x264-BATV[ettv] torrent
Blindspot.S04E10.HDTV.x264-SVA[ettv] torrent
MacGyver.2016.S03E13.HDTV.x264-SVA[ettv] torrent
Hawaii.Five-0.2010.S09E13.HDTV.x264-BATV[ettv] torrent

ETTV Recommended SD
Deadly.Switch.2019.HDRip.XViD-ETRG torrent
Close.2019.HDRip.XViD-ETRG torrent
IO.2019.HDRip.XViD-ETRG torrent
Bumblebee.2018.HC.HDRip.XViD.AC3-ETRG torrent

ETTV Recommended HD
All The Devil\'s Men 2018 Multi 1080p Blu Ray HEVC.DTS-HD MA.5.1-DTOne torrent
Boy Erased 2018 Multi.1080p.Bluray.HEVCDTS-HDMA.5.1-DTOne torrent
Indivisible 2018 Multi.1080p.Bluray.HEVC.DTS-HDMA.5.1-DTOne torrent
Take The Ball Pass The Ball 2018 1080p.Bluray.HEVC.DTS-HDMA.5.1-DTOne torrent

ETTV Recommended UHD
Star.Trek.Into.Darkness.2013.Multi.2160p.UHD.Bluray.x265.HDR.Atmos.7.1.[En+Hi+]-DTOne torrent
Johnny English Strikes Again 2018.UHD.2160p.Blu-ray.x265.DTS-HD.MA.7.1-DTOne torrent
The Hate U Give 2018.Multi.UHD.BluRay.2160p.x265.DTS-HD.MA.7.1-DTOne torrent
Future Man 2018Multi..UHD.2160p.Bluray.x265.HDR.Atmos.7.1-DTone torrent

ETTV Recommended Cam
How to Train Your Dragon 3 2019 HDCAM XViD AC3-ETRG torrent
Mary Poppins Returns 2018 NEW HDTS x264 AC3-ETRG torrent
Second Act 2018 HDCAM x264 AC3-ETRG torrent
Glass 2019.HDCAM.XViD.AC3-ETRG torrent

ETTV Recommended Foreign
Big Brother 2018 BluRay 1080p AAC x264-MPAD[EtHD] torrent
Padi Padi Leche Manasu.2018.1080p.AMZN.WeB.DL.H264.DDP.5.1.DTOne torrent
No Strings Attached (2011) 1080p Multi AMZN WEB-DL DDP 5.1 [En+Hi] MSub - DTOne torrent
Soni (2019) 1080p NF WEB-DL DDP 5.1 MSub - DTOne torrent


Download Torrent "The Dukes of Hazzard (1979) Season 05 S05 (1080p AMZN WEB-DL x265 HEVC 10bi..."

IMDB Details
Description:

The adventures of the fast-drivin', rubber-burnin' Duke boys of Hazzard County.

Genre:

Action, Comedy

Download Torrent (Magnet)
Download Torrent (File)
Seeds: 90
Leechers: 83
Completed: 673 
Last Checked: 09-01-2019 03:44:51


Loading...
Details
Title:The Dukes of Hazzard (1979) Season 05 S05 (1080p AMZN WEB-DL x265 HEVC 10bi...
Description:
[CENTER]


















Media Information

[B]Media Information[/B][B]General[/B]
Format                                   : Matroska
Format version                           : Version 4 / Version 2
File size                                : 1.38 GiB
Duration                                 : 48 min 32 s
Overall bit rate                         : 4 063 kb/s
Encoded date                             : UTC 2019-01-07 18:28:38
Writing application                      : mkvmerge v30.1.0 ('Forever And More') 64-bit
Writing library                          : libebml v1.3.6 + libmatroska v1.4.9

[B]Video[/B]
ID                                       : 1
Format                                   : HEVC
Format/Info                              : High Efficiency Video Coding
Format profile                           : Main [email protected]@Main
Codec ID                                 : V_MPEGH/ISO/HEVC
Duration                                 : 48 min 32 s
Bit rate                                 : 3 837 kb/s
Width                                    : 1 920 pixels
Height                                   : 1 080 pixels
Display aspect ratio                     : 16:9
Frame rate mode                          : Constant
Frame rate                               : 23.976 (24000/1001) FPS
Color space                              : YUV
Chroma subsampling                       : 4:2:0
Bit depth                                : 10 bits
Bits/(Pixel*Frame)                       : 0.077
Stream size                              : 1.30 GiB (94%)
Writing library                          : x265 2.9+8-27d8424c799d:[Windows][MSVC 1915][64 bit] 10bit
Encoding settings                        : cpuid=1111039 / frame-threads=4 / numa-pools=16 / wpp / no-pmode / no-pme / no-psnr / no-ssim / log-level=2 / input-csp=1 / input-res=1920x1080 / interlace=0 / total-frames=69831 / level-idc=0 / high-tier=1 / uhd-bd=0 / ref=4 / no-allow-non-conformance / no-repeat-headers / annexb / no-aud / no-hrd / info / hash=0 / no-temporal-layers / open-gop / min-keyint=23 / keyint=250 / gop-lookahead=0 / bframes=8 / b-adapt=2 / b-pyramid / bframe-bias=0 / rc-lookahead=25 / lookahead-slices=4 / scenecut=40 / radl=0 / no-intra-refresh / ctu=64 / min-cu-size=8 / no-rect / no-amp / max-tu-size=32 / tu-inter-depth=1 / tu-intra-depth=1 / limit-tu=0 / rdoq-level=2 / dynamic-rd=0.00 / no-ssim-rd / signhide / no-tskip / nr-intra=0 / nr-inter=0 / no-constrained-intra / strong-intra-smoothing / max-merge=3 / limit-refs=3 / limit-modes / me=3 / subme=3 / merange=57 / temporal-mvp / weightp / no-weightb / no-analyze-src-pics / deblock=0:0 / sao / no-sao-non-deblock / rd=4 / no-early-skip / rskip / no-fast-intra / no-tskip-fast / no-cu-lossless / no-b-intra / no-splitrd-skip / rdpenalty=0 / psy-rd=1.00 / psy-rdoq=5.00 / no-rd-refine / no-lossless / cbqpoffs=0 / crqpoffs=0 / rc=crf / crf=22.5 / qcomp=0.60 / qpstep=4 / stats-write=0 / stats-read=0 / ipratio=1.40 / pbratio=1.30 / aq-mode=2 / aq-strength=1.00 / cutree / zone-count=0 / no-strict-cbr / qg-size=32 / no-rc-grain / qpmax=69 / qpmin=0 / no-const-vbv / sar=0 / overscan=0 / videoformat=5 / range=0 / colorprim=2 / transfer=2 / colormatrix=2 / chromaloc=0 / display-window=0 / max-cll=0,0 / min-luma=0 / max-luma=1023 / log2-max-poc-lsb=8 / vui-timing-info / vui-hrd-info / slices=1 / no-opt-qp-pps / no-opt-ref-list-length-pps / no-multi-pass-opt-rps / scenecut-bias=0.05 / no-opt-cu-delta-qp / no-aq-motion / no-hdr / no-hdr-opt / no-dhdr10-opt / no-idr-recovery-sei / analysis-reuse-level=5 / scale-factor=0 / refine-intra=0 / refine-inter=0 / refine-mv=0 / no-limit-sao / ctu-info=0 / no-lowpass-dct / refine-mv-type=0 / copy-pic=1 / max-ausize-factor=1.0 / no-dynamic-refine / no-single-sei
Language                                 : English
Default                                  : Yes
Forced                                   : No

[B]Audio[/B]
ID                                       : 2
Format                                   : E-AC-3
Format/Info                              : Enhanced Audio Coding 3
Format settings, Endianness              : Big
Codec ID                                 : A_EAC3
Duration                                 : 48 min 32 s
Bit rate mode                            : Constant
Bit rate                                 : 224 kb/s
Channel(s)                               : 2 channels
Channel positions                        : Front: L R
Sampling rate                            : 48.0 kHz
Frame rate                               : 187.500 FPS (256 spf)
Compression mode                         : Lossy
Stream size                              : 77.8 MiB (6%)
Language                                 : English
Default                                  : Yes
Forced                                   : No

[B]Subtitle[/B]
ID                                       : 3
Format                                   : UTF-8
Codec ID                                 : S_TEXT/UTF8
Codec ID/Info                            : UTF-8 Plain Text
Duration                                 : 47 min 43 s
Bit rate                                 : 83 b/s
Count of elements                        : 827
Stream size                              : 29.3 KiB (0%)
Language                                 : English
Default                                  : Yes
Forced                                   : No



[B]Source Information[/B]Release:
Unknown Source/NO-GROUP

[/CENTER]
Category:TV > HEVC/x265
Lang:English  English
Total Size:35.69 GB
Info Hash:33b7cf072f552d8159b0ebd2610cb283e1c74844
Added By:UTR
Date Added:09-01-2019 03:44:41

Files

File List: 
 File Size
The Dukes of Hazzard S05E01 The New Dukes.mkv1.38 GB
The Dukes of Hazzard S05E02 Dukes Strike It Rich.mkv1.60 GB
The Dukes of Hazzard S05E03 Lawman of the Year.mkv1.69 GB
The Dukes of Hazzard S05E04 Coy Meets Girl.mkv1.75 GB
The Dukes of Hazzard S05E05 The Hazzardgate Tape.mkv1.56 GB
The Dukes of Hazzard S05E06 Big Daddy.mkv1.67 GB
The Dukes of Hazzard S05E07 Vance's Lady.mkv1.74 GB
The Dukes of Hazzard S05E08 Hazzard Hustle.mkv1.68 GB
The Dukes of Hazzard S05E09 Enos in Trouble.mkv1.39 GB
The Dukes of Hazzard S05E10 The Great Insurance Fraud.mkv1.70 GB
The Dukes of Hazzard S05E11 A Little Game of Pool.mkv1.76 GB
The Dukes of Hazzard S05E12 The Treasure of Soggy Marsh.mkv1.78 GB
The Dukes of Hazzard S05E13 The Revenge of Hughie Hogg.mkv1.48 GB
The Dukes of Hazzard S05E14 The Return of the Mean Green Machine.mkv1.74 GB
The Dukes of Hazzard S05E15 Ding, Dong, the Boss is Dead.mkv1.47 GB
The Dukes of Hazzard S05E16 Coy vs. Vance.mkv1.57 GB
The Dukes of Hazzard S05E17 Comrade Duke.mkv1.64 GB
The Dukes of Hazzard S05E18 Witness Jesse Duke.mkv1.48 GB
The Dukes of Hazzard S05E19 Welcome Back, Bo 'n' Luke.mkv1.78 GB
The Dukes of Hazzard S05E20 Big Brothers, Duke.mkv1.72 GB
The Dukes of Hazzard S05E21 Farewell, Hazzard.mkv1.48 GB
The Dukes of Hazzard S05E22 Daisy's Shotgun Wedding.mkv1.64 GB



Comments

There are currently no comments. Be the first one to write something !