italian The Orville hindi game of thrones young sheldon S02E13 big bang theory The punisher s02 gotham bohemian rhapsody ita split The Good Place s03e12 great british bake off s09e10 2018 ita the big bang theory S12E13 the punisher the good place fgt star trek star trek discovery s02e01 star trek discovery s02 The flash bumblebee tushy 18.12 1080p.mp4-ktr the big bang theory brooklyn nine nine s06e02 tushyraw 1080p.mp4-ktr supernatural ita complete season anal Venom Modern Family evo lesbian ncis Xxx GREYS ANATOMY DTONE etmovies bohemian rhapsody ıt 2017 ethd EtHD the grand tour the orville s02e04 etrg true detective gotham s05e03 mom ddr aquaman you star trek discovery español star trek discovery 1080P 2160p a star is born Young sheldon Supernatural S14E10 windows 10 it brooklyn nine nine ettv punisher AQUAMAN ita dtone arrow arrow español orville vikings S05E18 vikings 
Warning! Use a VPN When Downloading Torrents!
Your IP Address is 18.205.246.238. Location is United States
Your Internet Provider is tracking your torrent activity! Hide your IP ADDRESS with a VPN!
We strongly recommend using ExpressVPN to anonymize your torrenting. 30 Day Money Back Guarantee!
Try it Now!
ETTV Recommended TV Shows
The.Blacklist.S06E04.HDTV.x264-BATV[ettv] torrent
Blindspot.S04E10.HDTV.x264-SVA[ettv] torrent
MacGyver.2016.S03E13.HDTV.x264-SVA[ettv] torrent
Hawaii.Five-0.2010.S09E13.HDTV.x264-BATV[ettv] torrent

ETTV Recommended SD
Deadly.Switch.2019.HDRip.XViD-ETRG torrent
Close.2019.HDRip.XViD-ETRG torrent
IO.2019.HDRip.XViD-ETRG torrent
Bumblebee.2018.HC.HDRip.XViD.AC3-ETRG torrent

ETTV Recommended HD
All The Devil\'s Men 2018 Multi 1080p Blu Ray HEVC.DTS-HD MA.5.1-DTOne torrent
Boy Erased 2018 Multi.1080p.Bluray.HEVCDTS-HDMA.5.1-DTOne torrent
Indivisible 2018 Multi.1080p.Bluray.HEVC.DTS-HDMA.5.1-DTOne torrent
Take The Ball Pass The Ball 2018 1080p.Bluray.HEVC.DTS-HDMA.5.1-DTOne torrent

ETTV Recommended UHD
Star.Trek.Into.Darkness.2013.Multi.2160p.UHD.Bluray.x265.HDR.Atmos.7.1.[En+Hi+]-DTOne torrent
Johnny English Strikes Again 2018.UHD.2160p.Blu-ray.x265.DTS-HD.MA.7.1-DTOne torrent
The Hate U Give 2018.Multi.UHD.BluRay.2160p.x265.DTS-HD.MA.7.1-DTOne torrent
Future Man 2018Multi..UHD.2160p.Bluray.x265.HDR.Atmos.7.1-DTone torrent

ETTV Recommended Cam
How to Train Your Dragon 3 2019 HDCAM XViD AC3-ETRG torrent
Mary Poppins Returns 2018 NEW HDTS x264 AC3-ETRG torrent
Second Act 2018 HDCAM x264 AC3-ETRG torrent
Glass 2019.HDCAM.XViD.AC3-ETRG torrent

ETTV Recommended Foreign
Big Brother 2018 BluRay 1080p AAC x264-MPAD[EtHD] torrent
Padi Padi Leche Manasu.2018.1080p.AMZN.WeB.DL.H264.DDP.5.1.DTOne torrent
No Strings Attached (2011) 1080p Multi AMZN WEB-DL DDP 5.1 [En+Hi] MSub - DTOne torrent
Soni (2019) 1080p NF WEB-DL DDP 5.1 MSub - DTOne torrent


Download Torrent " Friends (1994) Season 10 S10 (1080p BluRay x265 HEVC 10bit AAC 5.1 Joy) [U..."

IMDB Details
Description:

N/A

Genre:

Family

Download Torrent (Magnet)
Download Torrent (File)
Seeds: 191
Leechers: 93
Completed: 2,517 
Last Checked: 10-01-2019 17:37:17


Loading...
Details
Title: Friends (1994) Season 10 S10 (1080p BluRay x265 HEVC 10bit AAC 5.1 Joy) [U...
Description:




Includes commentary audio tracks from the Blu-ray.

Media Information
General
Format                                   : Matroska
Format version                           : Version 4 / Version 2
File size                                : 310 MiB
Duration                                 : 29 min 19 s
Overall bit rate                         : 1 477 kb/s
Movie name                               : Friends S10E01 The One After Joey And Rachel Kiss  (1080p x265 10bit Joy)[UTR]
Encoded date                             : UTC 2019-01-08 21:12:55
Writing application                      : mkvmerge v24.0.0 ('Beyond The Pale') 64-bit
Writing library                          : libebml v1.3.6 + libmatroska v1.4.9
Writing frontend                         : StaxRip v1.8.2.0, A JoyBell Encode, UTR

Video
ID                                       : 1
Format                                   : HEVC
Format/Info                              : High Efficiency Video Coding
Format profile                           : Main [email protected]@Main
Codec ID                                 : V_MPEGH/ISO/HEVC
Duration                                 : 29 min 18 s
Bit rate                                 : 1 199 kb/s
Width                                    : 1 920 pixels
Height                                   : 1 080 pixels
Display aspect ratio                     : 16:9
Frame rate mode                          : Constant
Frame rate                               : 23.976 (24000/1001) FPS
Original frame rate                      : 24.000 FPS
Color space                              : YUV
Chroma subsampling                       : 4:2:0
Bit depth                                : 10 bits
Bits/(Pixel*Frame)                       : 0.024
Stream size                              : 251 MiB (81%)
Writing library                          : x265 2.9+15-81373aab81df:[Windows][MSVC 1916][64 bit] 10bit
Encoding settings                        : cpuid=1111039 / frame-threads=3 / numa-pools=8 / wpp / no-pmode / no-pme / no-psnr / ssim / log-level=2 / input-csp=1 / input-res=1920x1080 / interlace=0 / total-frames=42170 / level-idc=0 / high-tier=1 / uhd-bd=0 / ref=4 / no-allow-non-conformance / no-repeat-headers / annexb / no-aud / no-hrd / info / hash=0 / no-temporal-layers / open-gop / min-keyint=24 / keyint=250 / gop-lookahead=0 / bframes=4 / b-adapt=2 / b-pyramid / bframe-bias=0 / rc-lookahead=80 / lookahead-slices=4 / scenecut=40 / radl=0 / no-splice / no-intra-refresh / ctu=64 / min-cu-size=8 / no-rect / no-amp / max-tu-size=32 / tu-inter-depth=1 / tu-intra-depth=1 / limit-tu=0 / rdoq-level=2 / dynamic-rd=0.00 / ssim-rd / signhide / no-tskip / nr-intra=0 / nr-inter=0 / no-constrained-intra / strong-intra-smoothing / max-merge=3 / limit-refs=3 / limit-modes / me=3 / subme=3 / merange=57 / temporal-mvp / weightp / no-weightb / no-analyze-src-pics / deblock=0:0 / sao / no-sao-non-deblock / rd=4 / no-early-skip / rskip / no-fast-intra / no-tskip-fast / no-cu-lossless / no-b-intra / no-splitrd-skip / rdpenalty=0 / psy-rd=0.00 / psy-rdoq=1.50 / no-rd-refine / no-lossless / cbqpoffs=0 / crqpoffs=0 / rc=abr / bitrate=1200 / qcomp=0.60 / qpstep=4 / stats-write=0 / stats-read=2 / cplxblur=20.0 / qblur=0.5 / vbv-maxrate=3600 / vbv-bufsize=6200 / vbv-init=0.9 / ipratio=1.40 / pbratio=1.30 / aq-mode=3 / aq-strength=0.80 / cutree / zone-count=0 / no-strict-cbr / qg-size=32 / no-rc-grain / qpmax=69 / qpmin=0 / no-const-vbv / sar=0 / overscan=0 / videoformat=5 / range=0 / colorprim=2 / transfer=2 / colormatrix=2 / chromaloc=0 / display-window=0 / max-cll=0,0 / min-luma=0 / max-luma=1023 / log2-max-poc-lsb=8 / vui-timing-info / vui-hrd-info / slices=1 / no-opt-qp-pps / no-opt-ref-list-length-pps / multi-pass-opt-rps / scenecut-bias=0.05 / no-opt-cu-delta-qp / no-aq-motion / no-hdr / no-hdr-opt / no-dhdr10-opt / no-idr-recovery-sei / analysis-reuse-level=10 / scale-factor=0 / refine-intra=0 / refine-inter=0 / refine-mv=0 / limit-sao / ctu-info=0 / no-lowpass-dct / refine-mv-type=0 / copy-pic=1 / max-ausize-factor=1.0 / no-dynamic-refine / no-single-sei
Default                                  : Yes
Forced                                   : No

Audio
ID                                       : 2
Format                                   : AAC
Format/Info                              : Advanced Audio Codec
Format profile                           : HE-AACv2 / HE-AAC / LC
Codec ID                                 : A_AAC
Duration                                 : 29 min 19 s
Bit rate                                 : 192 kb/s
Channel(s)                               : 2 channels / 6 channels / 6 channels
Channel positions                        : Front: L R / Front: L C R, Side: L R, LFE / Front: L C R, Side: L R, LFE
Sampling rate                            : 48.0 kHz / 48.0 kHz / 24.0 kHz
Frame rate                               : 23.438 FPS (1024 spf)
Compression mode                         : Lossy
Delay relative to video                  : 31 ms
Stream size                              : 39.6 MiB (13%)
Language                                 : English
Default                                  : No
Forced                                   : No

Subtitle #1
ID                                       : 3
Format                                   : VobSub
Muxing mode                              : zlib
Codec ID                                 : S_VOBSUB
Codec ID/Info                            : Picture based subtitle format used on DVDs
Duration                                 : 29 min 8 s
Bit rate                                 : 13.6 kb/s
Count of elements                        : 443
Stream size                              : 2.85 MiB (1%)
Language                                 : English
Default                                  : No
Forced                                   : No

Subtitle #2
ID                                       : 4
Format                                   : VobSub
Muxing mode                              : zlib
Codec ID                                 : S_VOBSUB
Codec ID/Info                            : Picture based subtitle format used on DVDs
Duration                                 : 28 min 59 s
Bit rate                                 : 7 034 b/s
Count of elements                        : 408
Stream size                              : 1.46 MiB (0%)
Language                                 : Japanese
Default                                  : No
Forced                                   : No

Subtitle #3
ID                                       : 5
Format                                   : VobSub
Muxing mode                              : zlib
Codec ID                                 : S_VOBSUB
Codec ID/Info                            : Picture based subtitle format used on DVDs
Duration                                 : 29 min 8 s
Bit rate                                 : 8 804 b/s
Count of elements                        : 427
Stream size                              : 1.84 MiB (1%)
Language                                 : French
Default                                  : No
Forced                                   : No

Subtitle #4
ID                                       : 6
Format                                   : VobSub
Muxing mode                              : zlib
Codec ID                                 : S_VOBSUB
Codec ID/Info                            : Picture based subtitle format used on DVDs
Duration                                 : 29 min 8 s
Bit rate                                 : 16.4 kb/s
Count of elements                        : 500
Stream size                              : 3.43 MiB (1%)
Language                                 : German
Default                                  : No
Forced                                   : No

Subtitle #5
ID                                       : 7
Format                                   : VobSub
Muxing mode                              : zlib
Codec ID                                 : S_VOBSUB
Codec ID/Info                            : Picture based subtitle format used on DVDs
Duration                                 : 29 min 8 s
Bit rate                                 : 11.0 kb/s
Count of elements                        : 384
Stream size                              : 2.30 MiB (1%)
Language                                 : Spanish
Default                                  : No
Forced                                   : No

Subtitle #6
ID                                       : 8
Format                                   : VobSub
Muxing mode                              : zlib
Codec ID                                 : S_VOBSUB
Codec ID/Info                            : Picture based subtitle format used on DVDs
Duration                                 : 29 min 8 s
Bit rate                                 : 10.4 kb/s
Count of elements                        : 297
Stream size                              : 2.18 MiB (1%)
Language                                 : Dutch
Default                                  : No
Forced                                   : No

Subtitle #7
ID                                       : 9
Format                                   : VobSub
Muxing mode                              : zlib
Codec ID                                 : S_VOBSUB
Codec ID/Info                            : Picture based subtitle format used on DVDs
Duration                                 : 29 min 8 s
Bit rate                                 : 11.1 kb/s
Count of elements                        : 396
Stream size                              : 2.31 MiB (1%)
Language                                 : Chinese
Default                                  : No
Forced                                   : No

Subtitle #8
ID                                       : 10
Format                                   : VobSub
Muxing mode                              : zlib
Codec ID                                 : S_VOBSUB
Codec ID/Info                            : Picture based subtitle format used on DVDs
Duration                                 : 29 min 8 s
Bit rate                                 : 10.9 kb/s
Count of elements                        : 381
Stream size                              : 2.27 MiB (1%)
Language                                 : Spanish
Default                                  : No
Forced                                   : No

Subtitle #9
ID                                       : 11
Format                                   : VobSub
Muxing mode                              : zlib
Codec ID                                 : S_VOBSUB
Codec ID/Info                            : Picture based subtitle format used on DVDs
Duration                                 : 29 min 8 s
Bit rate                                 : 11.4 kb/s
Count of elements                        : 381
Stream size                              : 2.37 MiB (1%)
Language                                 : Portuguese
Default                                  : No
Forced                                   : No

Subtitle #10
ID                                       : 12
Format                                   : VobSub
Muxing mode                              : zlib
Codec ID                                 : S_VOBSUB
Codec ID/Info                            : Picture based subtitle format used on DVDs
Duration                                 : 29 min 8 s
Bit rate                                 : 10.5 kb/s
Count of elements                        : 375
Stream size                              : 2.19 MiB (1%)
Language                                 : Danish
Default                                  : No
Forced                                   : No

Subtitle #11
ID                                       : 13
Format                                   : VobSub
Muxing mode                              : zlib
Codec ID                                 : S_VOBSUB
Codec ID/Info                            : Picture based subtitle format used on DVDs
Duration                                 : 29 min 8 s
Bit rate                                 : 10.6 kb/s
Count of elements                        : 349
Stream size                              : 2.20 MiB (1%)
Language                                 : Finnish
Default                                  : No
Forced                                   : No

Subtitle #12
ID                                       : 14
Format                                   : VobSub
Muxing mode                              : zlib
Codec ID                                 : S_VOBSUB
Codec ID/Info                            : Picture based subtitle format used on DVDs
Duration                                 : 29 min 9 s
Bit rate                                 : 9 669 b/s
Count of elements                        : 305
Stream size                              : 2.02 MiB (1%)
Language                                 : Norwegian Bokmal
Default                                  : No
Forced                                   : No

Subtitle #13
ID                                       : 15
Format                                   : VobSub
Muxing mode                              : zlib
Codec ID                                 : S_VOBSUB
Codec ID/Info                            : Picture based subtitle format used on DVDs
Duration                                 : 29 min 8 s
Bit rate                                 : 10.4 kb/s
Count of elements                        : 329
Stream size                              : 2.16 MiB (1%)
Language                                 : Swedish
Default                                  : No
Forced                                   : No

Menu
00:00:00.000                             : en:Chapter 1
00:02:54.883                             : en:Chapter 2
00:11:19.137                             : en:Chapter 3
00:18:53.049                             : en:Chapter 4
00:28:34.212                             : en:Chapter 5

Source Information
Release: Friends.S10.1080p.BluRay.REMUX.AVC.DD.5.1-EPSiLON  (50.1 GB)

Category:TV > HEVC/x265
Lang:English  English
Total Size:4.64 GB
Info Hash:ac6fadcadec6d167777a7e25de271c93952100ea
Added By:UTR
Date Added:10-01-2019 17:37:07

Files

File List: 
 File Size
(C) for Audio Commentary.txt552.00 B
Encoded by JoyBell (UTR).txt2.73 kB
folder.jpg682.81 kB
Friends S10E01 The One After Joey And Rachel Kiss (1080p x265 10bit Joy).mkv310 MB
Friends S10E02 The One Where Ross Is Fine (1080p x265 10bit Joy).mkv254 MB
Friends S10E03 The One With Ross's Tan (1080p x265 10bit Joy).mkv255 MB
Friends S10E04 The One With The Cake (1080p x265 10bit Joy).mkv252 MB
Friends S10E05 The One Where Rachel's Sister Babysits (1080p x265 10bit Joy).mkv301 MB
Friends S10E06 The One With Ross's Grant (1080p x265 10bit Joy).mkv261 MB
Friends S10E07 The One With The Home Study (1080p x265 10bit Joy).mkv248 MB
Friends S10E08 The One With The Late Thanksgiving (1080p x265 10bit Joy) (C).mkv254 MB
Friends S10E09 The One With The Birth Mother (1080p x265 10bit Joy).mkv263 MB
Friends S10E10 The One Where Chandler Gets Caught (1080p x265 10bit Joy).mkv244 MB
Friends S10E11 The One Where The Stripper Cries (1080p x265 10bit Joy) (C).mkv302 MB
Friends S10E12 The One With Phoebe's Wedding (1080p x265 10bit Joy).mkv314 MB
Friends S10E13 The One Where Joey Speaks French (1080p x265 10bit Joy).mkv245 MB
Friends S10E14 The One With Princess Consuela (1080p x265 10bit Joy).mkv246 MB
Friends S10E15 The One Where Estelle Dies (1080p x265 10bit Joy).mkv247 MB
Friends S10E16 The One with Rachel's Going Away Party (1080p x265 10bit Joy).mkv240 MB
Friends S10E17E18 The Last One Part 1-2 (1080p x265 10bit Joy) (C).mkv516 MB
How to play HEVC (THIS FILE).txt3.42 kB
Ninite K-Lite Codecs Unattended Silent Installer and Updater.website561.00 B



Comments

There are currently no comments. Be the first one to write something !