italian The Orville hindi game of thrones young sheldon S02E13 big bang theory The punisher s02 gotham bohemian rhapsody ita split The Good Place s03e12 great british bake off s09e10 2018 ita the big bang theory S12E13 the punisher the good place fgt star trek star trek discovery s02e01 star trek discovery s02 The flash bumblebee tushy 18.12 1080p.mp4-ktr the big bang theory brooklyn nine nine s06e02 tushyraw 1080p.mp4-ktr supernatural ita complete season anal Venom Modern Family evo lesbian ncis Xxx GREYS ANATOMY DTONE etmovies bohemian rhapsody ıt 2017 ethd EtHD the grand tour the orville s02e04 etrg true detective gotham s05e03 mom ddr aquaman you star trek discovery español star trek discovery 1080P 2160p a star is born Young sheldon Supernatural S14E10 windows 10 it brooklyn nine nine ettv punisher AQUAMAN ita dtone arrow arrow español orville vikings S05E18 vikings 
Warning! Use a VPN When Downloading Torrents!
Your IP Address is 18.205.246.238. Location is United States
Your Internet Provider is tracking your torrent activity! Hide your IP ADDRESS with a VPN!
We strongly recommend using ExpressVPN to anonymize your torrenting. 30 Day Money Back Guarantee!
Try it Now!
ETTV Recommended TV Shows
The.Blacklist.S06E04.HDTV.x264-BATV[ettv] torrent
Blindspot.S04E10.HDTV.x264-SVA[ettv] torrent
MacGyver.2016.S03E13.HDTV.x264-SVA[ettv] torrent
Hawaii.Five-0.2010.S09E13.HDTV.x264-BATV[ettv] torrent

ETTV Recommended SD
Deadly.Switch.2019.HDRip.XViD-ETRG torrent
Close.2019.HDRip.XViD-ETRG torrent
IO.2019.HDRip.XViD-ETRG torrent
Bumblebee.2018.HC.HDRip.XViD.AC3-ETRG torrent

ETTV Recommended HD
All The Devil\'s Men 2018 Multi 1080p Blu Ray HEVC.DTS-HD MA.5.1-DTOne torrent
Boy Erased 2018 Multi.1080p.Bluray.HEVCDTS-HDMA.5.1-DTOne torrent
Indivisible 2018 Multi.1080p.Bluray.HEVC.DTS-HDMA.5.1-DTOne torrent
Take The Ball Pass The Ball 2018 1080p.Bluray.HEVC.DTS-HDMA.5.1-DTOne torrent

ETTV Recommended UHD
Star.Trek.Into.Darkness.2013.Multi.2160p.UHD.Bluray.x265.HDR.Atmos.7.1.[En+Hi+]-DTOne torrent
Johnny English Strikes Again 2018.UHD.2160p.Blu-ray.x265.DTS-HD.MA.7.1-DTOne torrent
The Hate U Give 2018.Multi.UHD.BluRay.2160p.x265.DTS-HD.MA.7.1-DTOne torrent
Future Man 2018Multi..UHD.2160p.Bluray.x265.HDR.Atmos.7.1-DTone torrent

ETTV Recommended Cam
How to Train Your Dragon 3 2019 HDCAM XViD AC3-ETRG torrent
Mary Poppins Returns 2018 NEW HDTS x264 AC3-ETRG torrent
Second Act 2018 HDCAM x264 AC3-ETRG torrent
Glass 2019.HDCAM.XViD.AC3-ETRG torrent

ETTV Recommended Foreign
Big Brother 2018 BluRay 1080p AAC x264-MPAD[EtHD] torrent
Padi Padi Leche Manasu.2018.1080p.AMZN.WeB.DL.H264.DDP.5.1.DTOne torrent
No Strings Attached (2011) 1080p Multi AMZN WEB-DL DDP 5.1 [En+Hi] MSub - DTOne torrent
Soni (2019) 1080p NF WEB-DL DDP 5.1 MSub - DTOne torrent


Download Torrent " Midnight Texas (2017) Season 01 S01 (1080p BluRay x265 Q22 HEVC 10bit AAC ..."

IMDB Details
Description:

Midnight is a safe haven for those who are different, but with the presence of outsiders, the residents band together and form a strong and unlikely family.

Genre:

Drama, Fantasy, Mystery

Download Torrent (Magnet)
Download Torrent (File)
Seeds: 98
Leechers: 87
Completed: 1,082 
Last Checked: 10-01-2019 17:41:20


Loading...
Details
Title: Midnight Texas (2017) Season 01 S01 (1080p BluRay x265 Q22 HEVC 10bit AAC ...
Description:






Media Information
General
Format                                   : Matroska
Format version                           : Version 4 / Version 2
File size                                : 580 MiB
Duration                                 : 43 min 2 s
Overall bit rate                         : 1 885 kb/s
Movie name                               : Midnight.Texas.S01E01.1080p.BluRay.x264-SHORTBREHD  (1080p x265 q22 Joy)
Encoded date                             : UTC 2018-12-31 19:21:53
Writing application                      : mkvmerge v26.0.0 ('In The Game') 64-bit
Writing library                          : libebml v1.3.6 + libmatroska v1.4.9
Writing frontend                         : StaxRip v1.9.0.0, a JoyBell Encode

Video
ID                                       : 1
Format                                   : HEVC
Format/Info                              : High Efficiency Video Coding
Format profile                           : Main [email protected]@Main
Codec ID                                 : V_MPEGH/ISO/HEVC
Duration                                 : 43 min 2 s
Bit rate                                 : 1 667 kb/s
Width                                    : 1 920 pixels
Height                                   : 1 080 pixels
Display aspect ratio                     : 16:9
Frame rate mode                          : Constant
Frame rate                               : 23.976 (24000/1001) FPS
Color space                              : YUV
Chroma subsampling                       : 4:2:0
Bit depth                                : 10 bits
Bits/(Pixel*Frame)                       : 0.034
Stream size                              : 513 MiB (88%)
Writing library                          : x265 2.8+69-856f056d392e:[Windows][MSVC 1915][64 bit] 10bit
Encoding settings                        : cpuid=1111039 / frame-threads=3 / numa-pools=8 / wpp / no-pmode / no-pme / no-psnr / ssim / log-level=2 / input-csp=1 / input-res=1920x1080 / interlace=0 / total-frames=61925 / level-idc=0 / high-tier=1 / uhd-bd=0 / ref=4 / no-allow-non-conformance / no-repeat-headers / annexb / no-aud / no-hrd / info / hash=0 / no-temporal-layers / open-gop / min-keyint=23 / keyint=250 / gop-lookahead=0 / bframes=8 / b-adapt=2 / b-pyramid / bframe-bias=0 / rc-lookahead=40 / lookahead-slices=4 / scenecut=40 / radl=0 / no-intra-refresh / ctu=64 / min-cu-size=8 / rect / no-amp / max-tu-size=32 / tu-inter-depth=1 / tu-intra-depth=1 / limit-tu=0 / rdoq-level=2 / dynamic-rd=0.00 / ssim-rd / signhide / no-tskip / nr-intra=0 / nr-inter=0 / no-constrained-intra / strong-intra-smoothing / max-merge=3 / limit-refs=3 / limit-modes / me=3 / subme=3 / merange=57 / temporal-mvp / weightp / no-weightb / no-analyze-src-pics / deblock=2:2 / sao / no-sao-non-deblock / rd=4 / early-skip / rskip / no-fast-intra / no-tskip-fast / no-cu-lossless / no-b-intra / no-splitrd-skip / rdpenalty=0 / psy-rd=1.20 / psy-rdoq=0.80 / no-rd-refine / no-lossless / cbqpoffs=0 / crqpoffs=0 / rc=crf / crf=22.0 / qcomp=0.60 / qpstep=4 / stats-write=0 / stats-read=0 / vbv-maxrate=4000 / vbv-bufsize=8000 / vbv-init=0.9 / crf-max=28.0 / crf-min=14.0 / ipratio=1.40 / pbratio=1.30 / aq-mode=1 / aq-strength=1.00 / cutree / zone-count=0 / no-strict-cbr / qg-size=32 / no-rc-grain / qpmax=69 / qpmin=0 / no-const-vbv / sar=0 / overscan=0 / videoformat=5 / range=0 / colorprim=2 / transfer=2 / colormatrix=2 / chromaloc=0 / display-window=0 / max-cll=0,0 / min-luma=0 / max-luma=1023 / log2-max-poc-lsb=8 / vui-timing-info / vui-hrd-info / slices=1 / no-opt-qp-pps / no-opt-ref-list-length-pps / no-multi-pass-opt-rps / scenecut-bias=0.05 / no-opt-cu-delta-qp / no-aq-motion / no-hdr / no-hdr-opt / no-dhdr10-opt / no-idr-recovery-sei / analysis-reuse-level=5 / scale-factor=0 / refine-intra=0 / refine-inter=0 / refine-mv=0 / no-limit-sao / ctu-info=0 / no-lowpass-dct / refine-mv-type=0 / copy-pic=1 / max-ausize-factor=1.0 / no-dynamic-refine / no-single-sei
Default                                  : Yes
Forced                                   : No

Audio
ID                                       : 2
Format                                   : AAC
Format/Info                              : Advanced Audio Codec
Format profile                           : HE-AAC / LC
Codec ID                                 : A_AAC
Duration                                 : 43 min 2 s
Bit rate                                 : 216 kb/s
Channel(s)                               : 6 channels
Channel positions                        : Front: L C R, Side: L R, LFE
Sampling rate                            : 48.0 kHz / 24.0 kHz
Frame rate                               : 23.438 FPS (1024 spf)
Compression mode                         : Lossy
Delay relative to video                  : 31 ms
Stream size                              : 66.4 MiB (11%)
Language                                 : English
Default                                  : No
Forced                                   : No

Subtitle #1
ID                                       : 3
Format                                   : UTF-8
Codec ID                                 : S_TEXT/UTF8
Codec ID/Info                            : UTF-8 Plain Text
Duration                                 : 41 min 32 s
Bit rate                                 : 64 b/s
Count of elements                        : 690
Stream size                              : 19.7 KiB (0%)
Language                                 : English
Default                                  : No
Forced                                   : No

Subtitle #2
ID                                       : 4
Format                                   : UTF-8
Codec ID                                 : S_TEXT/UTF8
Codec ID/Info                            : UTF-8 Plain Text
Duration                                 : 42 min 7 s
Bit rate                                 : 67 b/s
Count of elements                        : 732
Stream size                              : 20.7 KiB (0%)
Title                                    : SDH
Language                                 : English
Default                                  : No
Forced                                   : No

Menu
00:00:00.000                             : en:00:00:00.000
00:13:45.616                             : en:00:13:45.616
00:26:29.046                             : en:00:26:29.046
00:31:11.953                             : en:00:31:11.953

Source Information
Release: Midnight.Texas.S01.1080p.BluRay.x264-SHORTBREHD[rartv]  (32.9 GB)

Category:TV > HEVC/x265
Lang:English  English
Total Size:6.96 GB
Info Hash:31c550bdaee5a596182cfbd14fe3ce662dd001d1
Added By:UTR
Date Added:10-01-2019 17:41:15

Files

File List: 
 File Size
Encoded by JoyBell (UTR).txt2.73 kB
folder.jpg25.58 kB
How to play HEVC (THIS FILE).txt3.42 kB
Midnight Texas S01E01 Bad Moon Rising (1080p x265 q22 Joy).mkv580 MB
Midnight Texas S01E02 Lemuel, Unchained (1080p x265 q22 Joy).mkv785 MB
Midnight Texas S01E03 Sexy Beast (1080p x265 q22 Joy).mkv637 MB
Midnight Texas S01E04 Unearthed (1080p x265 q22 Joy).mkv818 MB
Midnight Texas S01E05 Pilot (1080p x265 q22 Joy).mkv667 MB
Midnight Texas S01E06 Blinded by the Light (1080p x265 q22 Joy).mkv714 MB
Midnight Texas S01E07 Angel Heart (1080p x265 q22 Joy).mkv743 MB
Midnight Texas S01E08 Last Temptation of Midnight (1080p x265 q22 Joy).mkv721 MB
Midnight Texas S01E09 Riders on the Storm (1080p x265 q22 Joy).mkv753 MB
Midnight Texas S01E10 The Virgin Sacrifice (1080p x265 q22 Joy).mkv709 MB
Ninite K-Lite Codecs Unattended Silent Installer and Updater.website561.00 B



Comments

There are currently no comments. Be the first one to write something !