kgf sarkar Manikarnika star trek discovery thakrey Xxx kedarnath thackeray malayalam the accidental prime minister supernatural evo aquaman telugu odiyan the flash why cheat india great british bake off s09e10 vikings tushy 18.12 1080p.mp4-ktr charlie chaplin 2 1080P Hindi mirzapur ettv mr majnu the grand tour 2018 ita Adanga Maru Tin Star etmovies dtone uri EVO malayalam 2018 movies AQUAMAN ita Bumblebee ethd ITA zero etrg venom f2 1080p 2018 maari 2 Game Of Thrones viswasam TamilRockers Kannada simmba Kannada ddr simbha tushyraw 1080p.mp4-ktr mortal engines simba petta DTOne uri the surgical strike kung fu the legend Young justice tamil robot 2.0 it brazzers it 2017 2.0 thakre Njan Prakashan glass fgt bohemian rhapsody Star Trek Discovery S02E02 
Warning! Use a VPN When Downloading Torrents!
Your IP Address is 54.90.204.233. Location is United States
Your Internet Provider is tracking your torrent activity! Hide your IP ADDRESS with a VPN!
We strongly recommend using ExpressVPN to anonymize your torrenting. 30 Day Money Back Guarantee!
Try it Now!
ETTV Recommended TV Shows
Madam.Secretary.S05E17.HDTV.x264-KILLERS[ettv] torrent
Supergirl.S04E16.HDTV.x264-SVA[ettv] torrent
The.Walking.Dead.S09E15.HDTV.x264-SVA[ettv] torrent
Charmed.2018.S01E16.HDTV.x264-SVA[ettv] torrent
NCIS.Los.Angeles.S10E18.HDTV.x264-SVA[ettv] torrent
Into.the.Badlands.S03E09.HDTV.x264-SVA[ettv] torrent

ETTV Recommended SD
The.Dirt.2019.HDRip.XviD.AC3-EVO torrent
Twelve.2019.HDRip.XviD.AC3-EVO torrent
A.Dogs.Way.Home.2019.HDRip.XViD-ETRG torrent
The Belly of the Whale.2019.HDRip.XViD-ETRG torrent

ETTV Recommended HD
Bumblebee.2018.MULTi.2160p.BluRay.HEVC..HDR.Atmos.7.1-DDR torrent
The Favourite 2018.MULTi.BluRay.1080p.HEVC.DTS-HD.MA5.1.[En+Hi]-DDR torrent
Stan And Ollie.2018.BluRay.1080p.HEVC.DTS-HD.MA5.1-DDR torrent
Stephen King's - Pet Sematary 1989.MULTi.1080p.Blu-ray.HEVC.DTS-HDMA.5.1-DDR torrent

ETTV Recommended UHD
Mad.Max.1979.2160p.HDR.UHDrip.HEVC.DTS-HDMA.5.1-DDR torrent
Pet Sematary 1989.Multi.2160p.Blu-ray.HEVC.HDR.DTS-HDMA.5.1-DDR torrent
Borneo - Fascinating Asia 2016.UHD.2160p.SDR.HEVC.DTS-HDMA.5.1-DDR torrent
Bumblebee.2018.UHD.2160p.BluRay.Remux.HEVC.DD.5.1.Dolby.Vision.Remux-DDR torrent

ETTV Recommended Cam
Alita.Battle.Angel.2019.HDTS x264.AC3-ETRG torrent
US.2019.720p.HDCAM.x264.AC3-ETRG torrent
A Madea Family Funeral 2019 NEW SOURCE 720p HDCAM WaTcHeRs torrent
Captain Marvel 2019 HDTS x264 AC3-ETRG torrent

ETTV Recommended Foreign
Sharato Lagu.2018.Gujarati.1080p.WEB-DL.AVC.AAC.DDR torrent
Chor Bani Thangaat Kare.2017.Gujarati.1080p.WEB-DL.AVC.AAC.DDR torrent
Phamous.2018.1080p.WEB-DL.AVC.AAC.DDR torrent
Total Dhamaal.(2019).1GB.720p.HDRip.XviD.AC3.5.1-Team.DUS torrent


Download Torrent "Hey Ram [2000] DVDRip x265 Hindi AC-3 5.1 Kira [SEV]"

IMDB Details
Description:

Saketh Ram's wife is raped and killed during direct action day riots in Calcutta. He is convinced that Mahatma Gandhi is responsible for all the problems happening in the country and sets out to kill him.

Genre:

Crime, Drama, History

Download Torrent (Magnet)
Download Torrent (File)
Seeds: 27
Leechers: 27
Completed: 173 
Last Checked: 11-01-2019 05:45:25


Details
Title:Hey Ram [2000] DVDRip x265 Hindi AC-3 5.1 Kira [SEV]
Description:






Media Information
General
Format                      : Matroska
Format version              : Version 4
File size                   : 3.03 GiB
Duration                    : 3 h 19 min
Overall bit rate            : 2 176 kb/s
Movie name                  : Hey Ram [2000]
Encoded date                : UTC 2019-01-09 05:22:17
Writing application         : mkvmerge v29.0.0 ('Like It Or Not') 64-bit
Writing library             : libebml v1.3.6 + libmatroska v1.4.9

Video
ID                          : 1
Format                      : HEVC
Format/Info                 : High Efficiency Video Coding
Format profile              : Main [email protected]@Main
Codec ID                    : V_MPEGH/ISO/HEVC
Duration                    : 3 h 19 min
Bit rate                    : 1 726 kb/s
Width                       : 720 pixels
Height                      : 348 pixels
Display aspect ratio        : 16:9
Original display aspect rat : 16:9
Frame rate mode             : Constant
Frame rate                  : 29.970 (30000/1001) FPS
Color space                 : YUV
Chroma subsampling          : 4:2:0
Bit depth                   : 10 bits
Bits/(Pixel*Frame)          : 0.230
Stream size                 : 2.41 GiB (79%)
Title                       : Hey Ram [2000]
Writing library             : x265 2.9+34-17120cfb5c99:[Windows][MSVC 1920][64 bit] 10bit
Encoding settings           : cpuid=1111039 / frame-threads=2 / numa-pools=4 / wpp / no-pmode / no-pme / no-psnr / no-ssim / log-level=2 / input-csp=1 / input-res=720x348 / interlace=0 / total-frames=358712 / level-idc=0 / high-tier=1 / uhd-bd=0 / ref=5 / no-allow-non-conformance / no-repeat-headers / annexb / no-aud / no-hrd / info / hash=0 / no-temporal-layers / open-gop / min-keyint=25 / keyint=250 / gop-lookahead=0 / bframes=8 / b-adapt=2 / b-pyramid / bframe-bias=0 / rc-lookahead=100 / lookahead-slices=0 / scenecut=40 / radl=0 / no-splice / no-intra-refresh / ctu=64 / min-cu-size=8 / no-rect / no-amp / max-tu-size=32 / tu-inter-depth=3 / tu-intra-depth=3 / limit-tu=4 / rdoq-level=2 / dynamic-rd=0.00 / no-ssim-rd / signhide / no-tskip / nr-intra=0 / nr-inter=0 / no-constrained-intra / no-strong-intra-smoothing / max-merge=4 / limit-refs=1 / limit-modes / me=3 / subme=5 / merange=57 / temporal-mvp / weightp / weightb / no-analyze-src-pics / deblock=0:0 / sao / no-sao-non-deblock / rd=6 / no-early-skip / rskip / no-fast-intra / no-tskip-fast / no-cu-lossless / b-intra / no-splitrd-skip / rdpenalty=0 / psy-rd=1.40 / psy-rdoq=1.00 / no-rd-refine / no-lossless / cbqpoffs=0 / crqpoffs=0 / rc=crf / crf=19.0 / qcomp=0.60 / qpstep=4 / stats-write=0 / stats-read=0 / ipratio=1.40 / pbratio=1.30 / aq-mode=3 / aq-strength=1.00 / cutree / zone-count=0 / no-strict-cbr / qg-size=32 / no-rc-grain / qpmax=69 / qpmin=0 / no-const-vbv / sar=255 / sar-width / : / sar-height=859:1000 / overscan=0 / videoformat=5 / range=0 / colorprim=2 / transfer=2 / colormatrix=2 / chromaloc=0 / display-window=0 / max-cll=0,0 / min-luma=0 / max-luma=1023 / log2-max-poc-lsb=8 / vui-timing-info / vui-hrd-info / slices=1 / no-opt-qp-pps / no-opt-ref-list-length-pps / no-multi-pass-opt-rps / scenecut-bias=0.05 / no-opt-cu-delta-qp / no-aq-motion / no-hdr / no-hdr-opt / no-dhdr10-opt / no-idr-recovery-sei / analysis-reuse-level=5 / scale-factor=0 / refine-intra=0 / refine-inter=0 / refine-mv=0 / refine-ctu-distortion=0 / no-limit-sao / ctu-info=0 / no-lowpass-dct / refine-analysis-type=0 / copy-pic=1 / max-ausize-factor=1.0 / no-dynamic-refine / no-single-sei / no-hevc-aq / qp-adaptation-range=1.00
Language                    : Hindi
Default                     : Yes
Forced                      : No

Audio
ID                          : 2
Format                      : AC-3
Format/Info                 : Audio Coding 3
Commercial name             : Dolby Digital
Codec ID                    : A_AC3
Duration                    : 3 h 19 min
Bit rate mode               : Constant
Bit rate                    : 448 kb/s
Channel(s)                  : 6 channels
Channel layout              : L R C LFE Ls Rs
Sampling rate               : 48.0 kHz
Frame rate                  : 31.250 FPS (1536 SPF)
Bit depth                   : 16 bits
Compression mode            : Lossy
Delay relative to video     : 5 s 539 ms
Stream size                 : 639 MiB (21%)
Title                       : Hindi Org DVD DD_5.1
Language                    : Hindi
Service kind                : Complete Main
Default                     : Yes
Forced                      : No


Source Information
Hey Ram DVD9 (7.01 GB)


We have no issue with individuals posting or re-uploading our torrents on a platform we aren't on. However, if this is something you'd like to do, please do so in a 'as-is' format. We ask that you do not create a new torrent, include all descriptions you see above including the SEV logo, tags, notes and screenshots. If you'd like to become a permanent poster on a website we don't post to, feel free to get in contact with a Sublime Encoded Video member.

We are recruiting/training new members for SEV & seedbox providers as well as people to help out with subtitles. As you already know, we deliver quality, so you know the standard. If you're interested, feel free to contact any of the team members.


Category:Movies > HEVC/x265
Lang:Hindi  Hindi
Total Size:3.03 GB
Info Hash:d65f5f57c207e16ef0f0d854f9c67d259579f26b
Added By:D0ct0rLew
Date Added:11-01-2019 05:45:16

Files

File List: 
 File Size
Hey Ram [2000] DVDRip x265 Hindi AC-3 5.1 Kira [SEV].mkv3.03 GB



Comments

There are currently no comments. Be the first one to write something !