kgf sarkar Manikarnika star trek discovery thakrey Xxx kedarnath thackeray malayalam the accidental prime minister supernatural evo aquaman telugu odiyan the flash why cheat india great british bake off s09e10 vikings tushy 18.12 1080p.mp4-ktr charlie chaplin 2 1080P Hindi mirzapur ettv mr majnu the grand tour 2018 ita Adanga Maru Tin Star etmovies dtone uri EVO malayalam 2018 movies AQUAMAN ita Bumblebee ethd ITA zero etrg venom f2 1080p 2018 maari 2 Game Of Thrones viswasam TamilRockers Kannada simmba Kannada ddr simbha tushyraw 1080p.mp4-ktr mortal engines simba petta DTOne uri the surgical strike kung fu the legend Young justice tamil robot 2.0 it brazzers it 2017 2.0 thakre Njan Prakashan glass fgt bohemian rhapsody Star Trek Discovery S02E02 
Warning! Use a VPN When Downloading Torrents!
Your IP Address is 54.90.204.233. Location is United States
Your Internet Provider is tracking your torrent activity! Hide your IP ADDRESS with a VPN!
We strongly recommend using ExpressVPN to anonymize your torrenting. 30 Day Money Back Guarantee!
Try it Now!
ETTV Recommended TV Shows
Madam.Secretary.S05E17.HDTV.x264-KILLERS[ettv] torrent
Supergirl.S04E16.HDTV.x264-SVA[ettv] torrent
The.Walking.Dead.S09E15.HDTV.x264-SVA[ettv] torrent
Charmed.2018.S01E16.HDTV.x264-SVA[ettv] torrent
NCIS.Los.Angeles.S10E18.HDTV.x264-SVA[ettv] torrent
Into.the.Badlands.S03E09.HDTV.x264-SVA[ettv] torrent

ETTV Recommended SD
The.Dirt.2019.HDRip.XviD.AC3-EVO torrent
Twelve.2019.HDRip.XviD.AC3-EVO torrent
A.Dogs.Way.Home.2019.HDRip.XViD-ETRG torrent
The Belly of the Whale.2019.HDRip.XViD-ETRG torrent

ETTV Recommended HD
Bumblebee.2018.MULTi.2160p.BluRay.HEVC..HDR.Atmos.7.1-DDR torrent
The Favourite 2018.MULTi.BluRay.1080p.HEVC.DTS-HD.MA5.1.[En+Hi]-DDR torrent
Stan And Ollie.2018.BluRay.1080p.HEVC.DTS-HD.MA5.1-DDR torrent
Stephen King's - Pet Sematary 1989.MULTi.1080p.Blu-ray.HEVC.DTS-HDMA.5.1-DDR torrent

ETTV Recommended UHD
Mad.Max.1979.2160p.HDR.UHDrip.HEVC.DTS-HDMA.5.1-DDR torrent
Pet Sematary 1989.Multi.2160p.Blu-ray.HEVC.HDR.DTS-HDMA.5.1-DDR torrent
Borneo - Fascinating Asia 2016.UHD.2160p.SDR.HEVC.DTS-HDMA.5.1-DDR torrent
Bumblebee.2018.UHD.2160p.BluRay.Remux.HEVC.DD.5.1.Dolby.Vision.Remux-DDR torrent

ETTV Recommended Cam
Alita.Battle.Angel.2019.HDTS x264.AC3-ETRG torrent
US.2019.720p.HDCAM.x264.AC3-ETRG torrent
A Madea Family Funeral 2019 NEW SOURCE 720p HDCAM WaTcHeRs torrent
Captain Marvel 2019 HDTS x264 AC3-ETRG torrent

ETTV Recommended Foreign
Sharato Lagu.2018.Gujarati.1080p.WEB-DL.AVC.AAC.DDR torrent
Chor Bani Thangaat Kare.2017.Gujarati.1080p.WEB-DL.AVC.AAC.DDR torrent
Phamous.2018.1080p.WEB-DL.AVC.AAC.DDR torrent
Total Dhamaal.(2019).1GB.720p.HDRip.XviD.AC3.5.1-Team.DUS torrent


Download Torrent "Goosebumps 2 Haunted Halloween (2018) x 1608 (2160p) HDR 5.1 x265 10bit Phu..."

IMDB Details
Description:

Two young friends find a magic book that brings a ventriloquist's dummy to life.

Genre:

Adventure, Comedy, Family, Fantasy, Horror

Download Torrent (Magnet)
Download Torrent (File)
Seeds: 262
Leechers: 72
Completed: 3,479 
Last Checked: 11-01-2019 13:52:03


Details
Title:Goosebumps 2 Haunted Halloween (2018) x 1608 (2160p) HDR 5.1 x265 10bit Phu...
Description:
www.imdb.com/title/tt5664636/

Two young friends find a magic book that brings a ventriloquist's dummy to life.

Source: FGT 4K HDR Remux







Format                      : Matroska
Format version              : Version 4 / Version 2
File size                   : 2.93 GiB
Duration                    : 1 h 29 min
Overall bit rate            : 4 675 kb/s

Video
ID                          : 1
Format                      : HEVC
Format/Info                 : High Efficiency Video Coding
Format profile              : Main [email protected]@High
Codec ID                    : V_MPEGH/ISO/HEVC
Duration                    : 1 h 29 min
Bit rate                    : 4 262 kb/s
Width                       : 3 840 pixels
Height                      : 1 608 pixels
Display aspect ratio        : 2.40:1
Frame rate mode             : Constant
Frame rate                  : 23.976 (24000/1001) FPS
Color space                 : YUV
Chroma subsampling          : 4:2:0
Bit depth                   : 10 bits
Bits/(Pixel*Frame)          : 0.029
Stream size                 : 2.67 GiB (91%)
Writing library             : x265 2.6:[Windows][GCC 7.3.0][64 bit] 10bit

Audio
ID                          : 2
Format                      : AC-3
Format/Info                 : Audio Coding 3
Commercial name             : Dolby Digital
Codec ID                    : A_AC3
Duration                    : 1 h 29 min
Bit rate mode               : Constant
Bit rate                    : 320 kb/s
Channel(s)                  : 6 channels
Channel layout              : L R C LFE Ls Rs
Sampling rate               : 48.0 kHz
Frame rate                  : 31.250 FPS (1536 SPF)
Bit depth                   : 16 bits
Compression mode            : Lossy
Stream size                 : 206 MiB (7%)
Title                       : Surround
Language                    : English

Text 
Language                    : English
Language                    : English
Language                    : English
Language                    : French
Language                    : Spanish
Language                    : French
Default                     : No
Forced                      : No
Category:Movies > UltraHD/4K
Lang:English  English
Total Size:2.93 GB
Info Hash:75fc086b1d17ebbe463982c223b840ee7aa60936
Added By:phunpsyz
Date Added:11-01-2019 13:51:58

  

Files

File List: 
 File Size
Goosebumps 2 Haunted Halloween (2018) x 1608 (2160p) HDR 5.1 x265 10bit Phun Psyz.mkv2.93 GB



Comments

There are currently no comments. Be the first one to write something !