kgf sarkar Manikarnika star trek discovery thakrey Xxx kedarnath thackeray malayalam the accidental prime minister supernatural evo aquaman telugu odiyan the flash why cheat india great british bake off s09e10 vikings tushy 18.12 1080p.mp4-ktr charlie chaplin 2 1080P Hindi mirzapur ettv mr majnu the grand tour 2018 ita Adanga Maru Tin Star etmovies dtone uri EVO malayalam 2018 movies AQUAMAN ita Bumblebee ethd ITA zero etrg venom f2 1080p 2018 maari 2 Game Of Thrones viswasam TamilRockers Kannada simmba Kannada ddr simbha tushyraw 1080p.mp4-ktr mortal engines simba petta DTOne uri the surgical strike kung fu the legend Young justice tamil robot 2.0 it brazzers it 2017 2.0 thakre Njan Prakashan glass fgt bohemian rhapsody Star Trek Discovery S02E02 
Warning! Use a VPN When Downloading Torrents!
Your IP Address is 54.226.23.160. Location is United States
Your Internet Provider is tracking your torrent activity! Hide your IP ADDRESS with a VPN!
We strongly recommend using ExpressVPN to anonymize your torrenting. 30 Day Money Back Guarantee!
Try it Now!
ETTV Recommended TV Shows
Doom.Patrol.S01E01.WEBRip.x264-PBS[ettv] torrent
The.Blacklist.S06E07.HDTV.x264-KILLERS[ettv] torrent
Blindspot.S04E13.HDTV.x264-SVA[ettv] torrent
Proven.Innocent.S01E01.WEB.x264-TBS[ettv] torrent
Strike.Back.S07E04.WEBRip.x264-PBS[ettv] torrent
Bellator 215 WEBRip h264-TJ [TJET] torrent

ETTV Recommended SD
Concealed.2017.HDRip.XViD-ETRG torrent
Ralph Breaks the Internet.2018.BRRip.XviD.AC3-EVO[EtMovies] torrent
Mary.Queen.of.Scots.2018.BRRip.XViD.AC3-ETRG torrent
The.Possession.of.Hannah.Grace.2018.BRRip.XViD-ETRG torrent

ETTV Recommended HD
Overlord.2018.Multi.1080p.Blu-ray.HEVC.DTS-HDMA.5.1-DTOne torrent
The.Front.Runner.2018.Multi.1080p.Blu-ray.HEVC.DTS-HDMA.5.1-DTOne torrent
Back.Trace.2018.BluRay.1080p.HEVC.DTS-HD.MA5.1-DTOne torrent
Mary.Queen.of.Scots.2018.1080p.BluRay.x264-GECKOS[EtHD] torrent

ETTV Recommended UHD
Velvet.Buzzsaw.2019.2160p.UHDRip.x265.HDR.DDP.5.1-DTOne torrent
The.Silence.of.the.Lambs.1991.2160p.UHDRip.x265.HDR.DTS-HD.MA.5.1-DTOne torrent
Robin.Hood.2018.UHD.BluRay.2160p.x265.Atmos.7.1-DTOne torrent
Big Pacific Season One 2018.2160p.UHD.BluRay.x265.SDR.FLAC.2.0-DTOne torrent

ETTV Recommended Cam
Escape Room 2019 HDCAM.XViD.AC3-ETRG torrent
The Lego Movie 2 2019 HDCAM XViD AC3-ETRG torrent
How to Train Your Dragon 3 2018 NEW 720p HDCAM-1XBET torrent
Happy Death Day 2U.2019.HDCAM.XViD.AC3-ETRG torrent

ETTV Recommended Foreign
Gully.Boy.(2019).1-3.Desi.Pre.Rip.x264.AC3-DTOne torrent
Irumbu Thirai (2018) 720p UNCUT HDRip x264 Eng Subs [Dual Audio] [Hindi DD 2.0 - Tamil 5.1] Exclusive By -=!Dr.STAR!=- torrent
KGF.Chapter.1.(2018).1080p.Web-DL.x264.DDP.5.1.(Hindi-640Kbps).ESub-DTOne torrent
Journal.64.2018.DANISH.1080p.BluRay.x264-CONDITION[EtHD] torrent


Download Torrent "Chips (2017) (2160p WEBRip x265 HEVC 10bit AAC 5.1 Joy) [UTR]"

IMDB Details
Description:

A rookie officer is teamed with a hardened pro at the California Highway Patrol, though the newbie soon learns his partner is really an undercover Fed investigating a heist that may involve some crooked cops.

Genre:

Action, Comedy, Crime

Download Torrent (Magnet)
Download Torrent (File)
Seeds: 138
Leechers: 75
Completed: 1,214 
Last Checked: 05-02-2019 05:32:57


Loading...
Details
Title:Chips (2017) (2160p WEBRip x265 HEVC 10bit AAC 5.1 Joy) [UTR]
Description:






Media Information
General
Format                                   : Matroska
Format version                           : Version 4 / Version 2
File size                                : 4.57 GiB
Duration                                 : 1 h 40 min
Overall bit rate                         : 6 489 kb/s
Movie name                               : Chips 2017  (2160p x265 10bit S85 Joy)[UTR]
Encoded date                             : UTC 2019-02-02 23:18:50
Writing application                      : mkvmerge v28.2.0 ('The Awakening') 64-bit
Writing library                          : libebml v1.3.6 + libmatroska v1.4.9
Cover                                    : Yes
Attachments                              : cover.jpg
Writing frontend                         : StaxRip v2.0, Encoded by JoyBell

Video
ID                                       : 1
Format                                   : HEVC
Format/Info                              : High Efficiency Video Coding
Format profile                           : Main [email protected]@Main
Codec ID                                 : V_MPEGH/ISO/HEVC
Duration                                 : 1 h 40 min
Bit rate                                 : 5 998 kb/s
Width                                    : 3 840 pixels
Height                                   : 2 160 pixels
Display aspect ratio                     : 16:9
Frame rate mode                          : Constant
Frame rate                               : 23.976 (24000/1001) FPS
Color space                              : YUV
Chroma subsampling                       : 4:2:0
Bit depth                                : 10 bits
Bits/(Pixel*Frame)                       : 0.030
Stream size                              : 4.22 GiB (92%)
Writing library                          : x265 2.9+15-81373aab81df:[Windows][MSVC 1916][64 bit] 10bit
Encoding settings                        : cpuid=1111039 / frame-threads=3 / numa-pools=12 / wpp / no-pmode / no-pme / no-psnr / ssim / log-level=2 / input-csp=1 / input-res=3840x2160 / interlace=0 / total-frames=145022 / level-idc=0 / high-tier=1 / uhd-bd=0 / ref=4 / no-allow-non-conformance / no-repeat-headers / annexb / no-aud / no-hrd / info / hash=0 / no-temporal-layers / open-gop / min-keyint=23 / keyint=250 / gop-lookahead=0 / bframes=4 / b-adapt=2 / b-pyramid / bframe-bias=0 / rc-lookahead=80 / lookahead-slices=4 / scenecut=40 / radl=0 / no-splice / no-intra-refresh / ctu=64 / min-cu-size=8 / no-rect / no-amp / max-tu-size=32 / tu-inter-depth=1 / tu-intra-depth=1 / limit-tu=0 / rdoq-level=2 / dynamic-rd=0.00 / ssim-rd / signhide / no-tskip / nr-intra=0 / nr-inter=0 / no-constrained-intra / strong-intra-smoothing / max-merge=3 / limit-refs=3 / limit-modes / me=3 / subme=3 / merange=57 / temporal-mvp / weightp / no-weightb / no-analyze-src-pics / deblock=0:0 / sao / no-sao-non-deblock / rd=4 / early-skip / rskip / no-fast-intra / no-tskip-fast / no-cu-lossless / no-b-intra / splitrd-skip / rdpenalty=0 / psy-rd=2.20 / psy-rdoq=1.15 / no-rd-refine / no-lossless / cbqpoffs=0 / crqpoffs=0 / rc=abr / bitrate=6000 / qcomp=0.50 / qpstep=4 / stats-write=0 / stats-read=2 / cplxblur=20.0 / qblur=0.5 / ipratio=1.40 / pbratio=1.30 / aq-mode=3 / aq-strength=0.80 / cutree / zone-count=0 / no-strict-cbr / qg-size=32 / no-rc-grain / qpmax=69 / qpmin=0 / no-const-vbv / sar=0 / overscan=0 / videoformat=5 / range=0 / colorprim=2 / transfer=2 / colormatrix=2 / chromaloc=0 / display-window=0 / max-cll=0,0 / min-luma=0 / max-luma=1023 / log2-max-poc-lsb=8 / vui-timing-info / vui-hrd-info / slices=1 / no-opt-qp-pps / no-opt-ref-list-length-pps / multi-pass-opt-rps / scenecut-bias=0.05 / no-opt-cu-delta-qp / no-aq-motion / no-hdr / no-hdr-opt / no-dhdr10-opt / no-idr-recovery-sei / analysis-reuse-level=10 / scale-factor=0 / refine-intra=0 / refine-inter=0 / refine-mv=0 / limit-sao / ctu-info=0 / no-lowpass-dct / refine-mv-type=0 / copy-pic=1 / max-ausize-factor=1.0 / no-dynamic-refine / no-single-sei
Default                                  : Yes
Forced                                   : No

Audio #1
ID                                       : 2
Format                                   : AAC
Format/Info                              : Advanced Audio Codec
Format profile                           : LC
Codec ID                                 : A_AAC
Duration                                 : 1 h 40 min
Bit rate                                 : 400 kb/s
Channel(s)                               : 6 channels
Channel positions                        : Front: L C R, Side: L R, LFE
Sampling rate                            : 48.0 kHz
Frame rate                               : 46.875 FPS (1024 spf)
Compression mode                         : Lossy
Delay relative to video                  : 9 ms
Stream size                              : 289 MiB (6%)
Language                                 : English
Default                                  : No
Forced                                   : No

Audio #2
ID                                       : 3
Format                                   : AAC
Format/Info                              : Advanced Audio Codec
Format profile                           : LC
Codec ID                                 : A_AAC
Duration                                 : 1 h 40 min
Bit rate                                 : 86.6 kb/s
Channel(s)                               : 2 channels
Channel positions                        : Front: L R
Sampling rate                            : 48.0 kHz
Frame rate                               : 46.875 FPS (1024 spf)
Compression mode                         : Lossy
Delay relative to video                  : 9 ms
Stream size                              : 62.5 MiB (1%)
Language                                 : French
Default                                  : No
Forced                                   : No

Subtitle #1
ID                                       : 4
Format                                   : UTF-8
Codec ID                                 : S_TEXT/UTF8
Codec ID/Info                            : UTF-8 Plain Text
Duration                                 : 1 h 37 min
Bit rate                                 : 88 b/s
Count of elements                        : 2038
Stream size                              : 63.5 KiB (0%)
Language                                 : English
Default                                  : No
Forced                                   : No

Subtitle #2
ID                                       : 5
Format                                   : UTF-8
Codec ID                                 : S_TEXT/UTF8
Codec ID/Info                            : UTF-8 Plain Text
Duration                                 : 1 h 40 min
Bit rate                                 : 84 b/s
Count of elements                        : 1857
Stream size                              : 62.1 KiB (0%)
Language                                 : French
Default                                  : No
Forced                                   : No

Subtitle #3
ID                                       : 6
Format                                   : UTF-8
Codec ID                                 : S_TEXT/UTF8
Codec ID/Info                            : UTF-8 Plain Text
Duration                                 : 1 h 40 min
Bit rate                                 : 1 b/s
Count of elements                        : 26
Stream size                              : 775 Bytes (0%)
Language                                 : French
Default                                  : No
Forced                                   : No

Subtitle #4
ID                                       : 7
Format                                   : UTF-8
Codec ID                                 : S_TEXT/UTF8
Codec ID/Info                            : UTF-8 Plain Text
Duration                                 : 1 h 37 min
Bit rate                                 : 88 b/s
Count of elements                        : 2038
Stream size                              : 63.5 KiB (0%)
Language                                 : English
Default                                  : No
Forced                                   : No

Subtitle #5
ID                                       : 8
Format                                   : UTF-8
Codec ID                                 : S_TEXT/UTF8
Codec ID/Info                            : UTF-8 Plain Text
Duration                                 : 1 h 40 min
Bit rate                                 : 84 b/s
Count of elements                        : 1857
Stream size                              : 62.1 KiB (0%)
Language                                 : French
Default                                  : No
Forced                                   : No

Subtitle #6
ID                                       : 9
Format                                   : UTF-8
Codec ID                                 : S_TEXT/UTF8
Codec ID/Info                            : UTF-8 Plain Text
Duration                                 : 1 h 40 min
Bit rate                                 : 1 b/s
Count of elements                        : 26
Stream size                              : 775 Bytes (0%)
Language                                 : French
Default                                  : No
Forced                                   : No

Subtitle #7
ID                                       : 10
Format                                   : UTF-8
Codec ID                                 : S_TEXT/UTF8
Codec ID/Info                            : UTF-8 Plain Text
Duration                                 : 1 h 38 min
Bit rate                                 : 149 b/s
Count of elements                        : 1869
Stream size                              : 107 KiB (0%)
Language                                 : Arabic
Default                                  : No
Forced                                   : No

Subtitle #8
ID                                       : 11
Format                                   : UTF-8
Codec ID                                 : S_TEXT/UTF8
Codec ID/Info                            : UTF-8 Plain Text
Duration                                 : 1 h 40 min
Bit rate                                 : 74 b/s
Count of elements                        : 1856
Stream size                              : 54.8 KiB (0%)
Language                                 : Danish
Default                                  : No
Forced                                   : No

Subtitle #9
ID                                       : 12
Format                                   : UTF-8
Codec ID                                 : S_TEXT/UTF8
Codec ID/Info                            : UTF-8 Plain Text
Duration                                 : 1 h 38 min
Bit rate                                 : 76 b/s
Count of elements                        : 1502
Stream size                              : 55.2 KiB (0%)
Language                                 : Dutch
Default                                  : No
Forced                                   : No

Subtitle #10
ID                                       : 13
Format                                   : UTF-8
Codec ID                                 : S_TEXT/UTF8
Codec ID/Info                            : UTF-8 Plain Text
Duration                                 : 1 h 38 min
Bit rate                                 : 137 b/s
Count of elements                        : 2020
Stream size                              : 99.6 KiB (0%)
Language                                 : Persian
Default                                  : No
Forced                                   : No

Subtitle #11
ID                                       : 14
Format                                   : UTF-8
Codec ID                                 : S_TEXT/UTF8
Codec ID/Info                            : UTF-8 Plain Text
Duration                                 : 1 h 40 min
Bit rate                                 : 68 b/s
Count of elements                        : 1860
Stream size                              : 50.5 KiB (0%)
Language                                 : Finnish
Default                                  : No
Forced                                   : No

Subtitle #12
ID                                       : 15
Format                                   : UTF-8
Codec ID                                 : S_TEXT/UTF8
Codec ID/Info                            : UTF-8 Plain Text
Duration                                 : 1 h 38 min
Bit rate                                 : 122 b/s
Count of elements                        : 1911
Stream size                              : 88.4 KiB (0%)
Language                                 : Hebrew
Default                                  : No
Forced                                   : No

Subtitle #13
ID                                       : 16
Format                                   : UTF-8
Codec ID                                 : S_TEXT/UTF8
Codec ID/Info                            : UTF-8 Plain Text
Duration                                 : 1 h 36 min
Bit rate                                 : 68 b/s
Count of elements                        : 1449
Stream size                              : 48.8 KiB (0%)
Language                                 : Indonesian
Default                                  : No
Forced                                   : No

Subtitle #14
ID                                       : 17
Format                                   : UTF-8
Codec ID                                 : S_TEXT/UTF8
Codec ID/Info                            : UTF-8 Plain Text
Duration                                 : 1 h 38 min
Bit rate                                 : 64 b/s
Count of elements                        : 1335
Stream size                              : 46.8 KiB (0%)
Language                                 : Norwegian
Default                                  : No
Forced                                   : No

Subtitle #15
ID                                       : 18
Format                                   : UTF-8
Codec ID                                 : S_TEXT/UTF8
Codec ID/Info                            : UTF-8 Plain Text
Duration                                 : 1 h 39 min
Bit rate                                 : 75 b/s
Count of elements                        : 1633
Stream size                              : 54.6 KiB (0%)
Language                                 : Romanian
Default                                  : No
Forced                                   : No

Subtitle #16
ID                                       : 19
Format                                   : UTF-8
Codec ID                                 : S_TEXT/UTF8
Codec ID/Info                            : UTF-8 Plain Text
Duration                                 : 1 h 40 min
Bit rate                                 : 75 b/s
Count of elements                        : 1857
Stream size                              : 55.2 KiB (0%)
Language                                 : Swedish
Default                                  : No
Forced                                   : No

Subtitle #17
ID                                       : 20
Format                                   : UTF-8
Codec ID                                 : S_TEXT/UTF8
Codec ID/Info                            : UTF-8 Plain Text
Duration                                 : 1 h 40 min
Bit rate                                 : 77 b/s
Count of elements                        : 1853
Stream size                              : 57.3 KiB (0%)
Language                                 : Turkish
Default                                  : No
Forced                                   : No

Subtitle #18
ID                                       : 21
Format                                   : UTF-8
Codec ID                                 : S_TEXT/UTF8
Codec ID/Info                            : UTF-8 Plain Text
Duration                                 : 1 h 38 min
Bit rate                                 : 110 b/s
Count of elements                        : 1871
Stream size                              : 79.7 KiB (0%)
Language                                 : Vietnamese
Default                                  : No
Forced                                   : No

Subtitle #19
ID                                       : 22
Format                                   : UTF-8
Codec ID                                 : S_TEXT/UTF8
Codec ID/Info                            : UTF-8 Plain Text
Duration                                 : 1 h 38 min
Bit rate                                 : 77 b/s
Count of elements                        : 1879
Stream size                              : 55.6 KiB (0%)
Language                                 : Spanish
Default                                  : No
Forced                                   : No

Source Information
Release: Chips.2017.2160p.HDR.WEBRip.DTS-HD.MA.5.1.x265-GASMASK.mkv (21.27 GBs)


Category:Movies > HEVC/x265
Lang:English  English
Total Size:4.57 GB
Info Hash:39fda8b308bdadbf32a571dab052f0019c9c1016
Added By:UTR
Date Added:05-02-2019 05:32:53

Files

File List: 
 File Size
Chips 2017 (2160p x265 10bit S85 Joy).mkv4.57 GB



Comments

There are currently no comments. Be the first one to write something !