kgf sarkar Manikarnika star trek discovery thakrey Xxx kedarnath thackeray malayalam the accidental prime minister supernatural evo aquaman telugu odiyan the flash why cheat india great british bake off s09e10 vikings tushy 18.12 1080p.mp4-ktr charlie chaplin 2 1080P Hindi mirzapur ettv mr majnu the grand tour 2018 ita Adanga Maru Tin Star etmovies dtone uri EVO malayalam 2018 movies AQUAMAN ita Bumblebee ethd ITA zero etrg venom f2 1080p 2018 maari 2 Game Of Thrones viswasam TamilRockers Kannada simmba Kannada ddr simbha tushyraw 1080p.mp4-ktr mortal engines simba petta DTOne uri the surgical strike kung fu the legend Young justice tamil robot 2.0 it brazzers it 2017 2.0 thakre Njan Prakashan glass fgt bohemian rhapsody Star Trek Discovery S02E02 
Warning! Use a VPN When Downloading Torrents!
Your IP Address is 54.226.23.160. Location is United States
Your Internet Provider is tracking your torrent activity! Hide your IP ADDRESS with a VPN!
We strongly recommend using ExpressVPN to anonymize your torrenting. 30 Day Money Back Guarantee!
Try it Now!
ETTV Recommended TV Shows
Doom.Patrol.S01E01.WEBRip.x264-PBS[ettv] torrent
The.Blacklist.S06E07.HDTV.x264-KILLERS[ettv] torrent
Blindspot.S04E13.HDTV.x264-SVA[ettv] torrent
Proven.Innocent.S01E01.WEB.x264-TBS[ettv] torrent
Strike.Back.S07E04.WEBRip.x264-PBS[ettv] torrent
Bellator 215 WEBRip h264-TJ [TJET] torrent

ETTV Recommended SD
Concealed.2017.HDRip.XViD-ETRG torrent
Ralph Breaks the Internet.2018.BRRip.XviD.AC3-EVO[EtMovies] torrent
Mary.Queen.of.Scots.2018.BRRip.XViD.AC3-ETRG torrent
The.Possession.of.Hannah.Grace.2018.BRRip.XViD-ETRG torrent

ETTV Recommended HD
Overlord.2018.Multi.1080p.Blu-ray.HEVC.DTS-HDMA.5.1-DTOne torrent
The.Front.Runner.2018.Multi.1080p.Blu-ray.HEVC.DTS-HDMA.5.1-DTOne torrent
Back.Trace.2018.BluRay.1080p.HEVC.DTS-HD.MA5.1-DTOne torrent
Mary.Queen.of.Scots.2018.1080p.BluRay.x264-GECKOS[EtHD] torrent

ETTV Recommended UHD
Velvet.Buzzsaw.2019.2160p.UHDRip.x265.HDR.DDP.5.1-DTOne torrent
The.Silence.of.the.Lambs.1991.2160p.UHDRip.x265.HDR.DTS-HD.MA.5.1-DTOne torrent
Robin.Hood.2018.UHD.BluRay.2160p.x265.Atmos.7.1-DTOne torrent
Big Pacific Season One 2018.2160p.UHD.BluRay.x265.SDR.FLAC.2.0-DTOne torrent

ETTV Recommended Cam
Escape Room 2019 HDCAM.XViD.AC3-ETRG torrent
The Lego Movie 2 2019 HDCAM XViD AC3-ETRG torrent
How to Train Your Dragon 3 2018 NEW 720p HDCAM-1XBET torrent
Happy Death Day 2U.2019.HDCAM.XViD.AC3-ETRG torrent

ETTV Recommended Foreign
Gully.Boy.(2019).1-3.Desi.Pre.Rip.x264.AC3-DTOne torrent
Irumbu Thirai (2018) 720p UNCUT HDRip x264 Eng Subs [Dual Audio] [Hindi DD 2.0 - Tamil 5.1] Exclusive By -=!Dr.STAR!=- torrent
KGF.Chapter.1.(2018).1080p.Web-DL.x264.DDP.5.1.(Hindi-640Kbps).ESub-DTOne torrent
Journal.64.2018.DANISH.1080p.BluRay.x264-CONDITION[EtHD] torrent


Download Torrent "Marvel One Shot - Agent Carter (2013) (1080p BluRay x265 HEVC 10bit DTS 5.1..."

IMDB Details
Description:

Frustrated at being marginalized at work, Peggy Carter goes on an unauthorized solo field mission.

Genre:

Short, Action, Adventure, Sci-Fi

Download Torrent (Magnet)
Download Torrent (File)
Seeds: 1,141
Leechers: 47
Completed: 24,470 
Last Checked: 08-02-2019 20:47:36


Loading...
Details
Title:Marvel One Shot - Agent Carter (2013) (1080p BluRay x265 HEVC 10bit DTS 5.1...
Description:








Media Information
General
Format                                   : Matroska
Format version                           : Version 4 / Version 2
File size                                : 275 MiB
Duration                                 : 15 min 29 s
Overall bit rate                         : 2 485 kb/s
Movie name                               : Marvel One Shot - Agent Carter
Encoded date                             : UTC 2019-02-07 07:12:13
Writing application                      : mkvmerge v9.2.0 ('Photograph') 64bit
Writing library                          : libebml v1.3.3 + libmatroska v1.4.4
Cover                                    : Yes
Attachments                              : cover.jpg

Video
ID                                       : 1
Format                                   : HEVC
Format/Info                              : High Efficiency Video Coding
Format profile                           : Main [email protected]@Main
Codec ID                                 : V_MPEGH/ISO/HEVC
Duration                                 : 15 min 29 s
Bit rate                                 : 969 kb/s
Width                                    : 1 920 pixels
Height                                   : 800 pixels
Display aspect ratio                     : 2.40:1
Frame rate mode                          : Constant
Frame rate                               : 23.976 (24000/1001) FPS
Color space                              : YUV
Chroma subsampling                       : 4:2:0
Bit depth                                : 10 bits
Bits/(Pixel*Frame)                       : 0.026
Stream size                              : 107 MiB (39%)
Title                                    : Agent Carter
Writing library                          : x265 2.5:[Windows][GCC 7.1.0][64 bit] 10bit
Encoding settings                        : cpuid=1173503 / frame-threads=2 / numa-pools=4 / wpp / no-pmode / no-pme / no-psnr / ssim / log-level=2 / input-csp=1 / input-res=1920x800 / interlace=0 / total-frames=0 / level-idc=0 / high-tier=1 / uhd-bd=0 / ref=2 / no-allow-non-conformance / no-repeat-headers / annexb / no-aud / no-hrd / info / hash=0 / no-temporal-layers / open-gop / min-keyint=24 / keyint=240 / bframes=4 / b-adapt=0 / b-pyramid / bframe-bias=0 / rc-lookahead=15 / lookahead-slices=5 / scenecut=40 / no-intra-refresh / ctu=64 / min-cu-size=8 / no-rect / no-amp / max-tu-size=32 / tu-inter-depth=1 / tu-intra-depth=1 / limit-tu=0 / rdoq-level=0 / dynamic-rd=0.00 / no-ssim-rd / signhide / no-tskip / nr-intra=0 / nr-inter=0 / no-constrained-intra / strong-intra-smoothing / max-merge=2 / limit-refs=3 / no-limit-modes / me=1 / subme=2 / merange=57 / temporal-mvp / weightp / no-weightb / no-analyze-src-pics / deblock=0:0 / sao / no-sao-non-deblock / rd=2 / early-skip / rskip / fast-intra / no-tskip-fast / no-cu-lossless / no-b-intra / rdpenalty=0 / psy-rd=0.00 / psy-rdoq=0.00 / no-rd-refine / analysis-reuse-mode=0 / no-lossless / cbqpoffs=0 / crqpoffs=0 / rc=crf / crf=22.0 / qcomp=0.60 / qpstep=4 / stats-write=0 / stats-read=0 / ipratio=1.40 / pbratio=1.30 / aq-mode=2 / aq-strength=1.00 / cutree / zone-count=0 / no-strict-cbr / qg-size=32 / no-rc-grain / qpmax=69 / qpmin=0 / no-const-vbv / sar=1 / overscan=0 / videoformat=5 / range=0 / colorprim=1 / transfer=1 / colormatrix=1 / chromaloc=0 / display-window=0 / max-cll=0,0 / min-luma=0 / max-luma=1023 / log2-max-poc-lsb=8 / vui-timing-info / vui-hrd-info / slices=1 / opt-qp-pps / opt-ref-list-length-pps / no-multi-pass-opt-rps / scenecut-bias=0.05 / no-opt-cu-delta-qp / no-aq-motion / no-hdr / no-hdr-opt / no-dhdr10-opt / analysis-reuse-level=5 / scale-factor=0 / refine-intra=0 / refine-inter=0 / refine-mv=0 / no-limit-sao / ctu-info=0
Language                                 : English
Default                                  : Yes
Forced                                   : No
Color range                              : Limited
Color primaries                          : BT.709
Transfer characteristics                 : BT.709
Matrix coefficients                      : BT.709

Audio
ID                                       : 2
Format                                   : DTS
Format/Info                              : Digital Theater Systems
Mode                                     : 16
Format settings, Endianness              : Big
Codec ID                                 : A_DTS
Duration                                 : 15 min 29 s
Bit rate mode                            : Constant
Bit rate                                 : 1 509 kb/s
Channel(s)                               : 6 channels
Channel positions                        : Front: L C R, Side: L R, LFE
Sampling rate                            : 48.0 kHz
Frame rate                               : 93.750 FPS (512 spf)
Bit depth                                : 24 bits
Compression mode                         : Lossy
Stream size                              : 167 MiB (61%)
Title                                    : DTS 5.1
Language                                 : English
Default                                  : Yes
Forced                                   : No

Menu
00:00:00.000                             : en:Chapter 01
00:05:04.804                             : en:Chapter 02
00:10:08.691                             : en:Chapter 03



Source Information
BluRay on Hand

We have no issue with individuals posting or re-uploading our torrents on a platform we aren't on. However, if this is something you'd like to do, please do so in a 'as-is' format. We ask that you do not create a new torrent, include all descriptions you see above including the UTR logo, tags, notes and screenshots. If you'd like to become a permanent poster on a website we don't post to, feel free to get in contact with a UniTeam member.

Category:Movies > HEVC/x265
Lang:English  English
Total Size:275 MB
Info Hash:389d94b45934ac16098f67df24117b880eb2f7e7
Added By:UTR
Date Added:08-02-2019 20:47:32

Files

File List: 
 File Size
Marvel One Shot - Agent Carter (2013) (1080p BluRay x265 HEVC 10bit DTS 5.1 Anna) [UTR].mkv275 MB



Comments

There are currently no comments. Be the first one to write something !