kgf sarkar Manikarnika star trek discovery thakrey Xxx kedarnath thackeray malayalam the accidental prime minister supernatural evo aquaman telugu odiyan the flash why cheat india great british bake off s09e10 vikings tushy 18.12 1080p.mp4-ktr charlie chaplin 2 1080P Hindi mirzapur ettv mr majnu the grand tour 2018 ita Adanga Maru Tin Star etmovies dtone uri EVO malayalam 2018 movies AQUAMAN ita Bumblebee ethd ITA zero etrg venom f2 1080p 2018 maari 2 Game Of Thrones viswasam TamilRockers Kannada simmba Kannada ddr simbha tushyraw 1080p.mp4-ktr mortal engines simba petta DTOne uri the surgical strike kung fu the legend Young justice tamil robot 2.0 it brazzers it 2017 2.0 thakre Njan Prakashan glass fgt bohemian rhapsody Star Trek Discovery S02E02 
Warning! Use a VPN When Downloading Torrents!
Your IP Address is 52.206.226.77. Location is United States
Your Internet Provider is tracking your torrent activity! Hide your IP ADDRESS with a VPN!
We strongly recommend using ExpressVPN to anonymize your torrenting. 30 Day Money Back Guarantee!
Try it Now!
ETTV Recommended TV Shows
Star.Trek.Discovery.S02E10.WEBRip.x264-TBS[ettv] torrent
The.Grand.Tour.S03E11.WEB.h264-STRiFE[ettv] torrent
Law.and.Order.SVU.S20E18.HDTV.x264-KILLERS[ettv] torrent
Greys.Anatomy.S15E18.HDTV.x264-KILLERS[ettv] torrent
The.Orville.S02E11.WEB.x264-TBS[ettv] torrent
Supernatural.S14E16.HDTV.x264-SVA[ettv] torrent

ETTV Recommended SD
Boo.2019.HDRip.XViD-ETRG torrent
The.Mule.2018.HDRip.XViD-ETRG torrent
Bumblebee.2018.HDRip.XViD-ETRG torrent
A.Dogs.Way.Home.2019.HC.HDRip.XviD.AC3-EVO torrent

ETTV Recommended HD
The.Mule.2018.1080p.BluRay.x264-DRONES[EtHD] torrent
A.Dogs.Way.Home.2019.720p.HC.HDRip.x264.AC3-ETRG torrent
Abduction.2019.1080p.WEB-DL.H264.AC3-EVO[EtHD] torrent
The Quake 2018.MULTi.Blu-ray.1080p.HEVC.DTS-TrueHD.5.1-DDR torrent

ETTV Recommended UHD
The Mule 2018.2160p.UHDrip.HEVC.HDR.DDP.5.1-DDR torrent
Bumblebee 2018.2160p.UHDrip.HEVC.SDR.DDP.5.1-DDR torrent
Lord of War 2005.UHD.2160p.Blu-ray.HEVC.HDR.Atmos.7.1-DDR torrent
Dog.Soldiers.2002.UHD.2160p.HEVC.SDR-DDR torrent

ETTV Recommended Cam
Captive State 2019.HDCAM.x264.AC3-ETRG torrent
Wonder Park 2019 HDCAM x264 AC3-ETRG torrent
Alita.Battle.Angel.2019.HDTS x264.AC3-ETRG torrent
US 2019 720p HDCAM-1XBET torrent

ETTV Recommended Foreign
Talav.2017.Marathi.1080p.AMZN.WeB.DL.H264.DDP.5.1.Dus torrent
Balakrishnudu (2017) 720p UNCUT HDRip x264 Eng Subs [Dual Audio] [Hindi DD 2.0 - Telugu 5.1] Exclusive By -=!Dr.STAR!=- torrent
Simmba.2018.1080p.WEB-DL.AVC.AAC.ESub.DDR torrent
Batti Gul Meter Chalu.2018.720p.DvDRip.x264.DD.5.1-DDR torrent


Download Torrent "Bohemian Rhapsody (2018) (2160p BluRay 10bit x265 HEVC TrueHD 7.1 Qman) [UT..."

IMDB Details
Description:

The story of the legendary rock band Queen and lead singer Freddie Mercury, leading up to their famous performance at Live Aid (1985).

Genre:

Biography, Drama, Music

Download Torrent (Magnet)
Download Torrent (File)
Seeds: 75
Leechers: 79
Completed: 4,474 
Last Checked: 15-02-2019 06:58:29


Loading...
Details
Title:Bohemian Rhapsody (2018) (2160p BluRay 10bit x265 HEVC TrueHD 7.1 Qman) [UT...
Description:
[img="https://i.postimg.cc/hjkyHjgc/pirate-shark-banner-with-forum-site-address-www-imagesplitter-n.png" alt=""][img="https://i.postimg.cc/CLHPQS2p/pirate-shark-banner-with-forum-site-address-www-imagesplitter-n.png" alt=""]
[img="https://i.postimg.cc/13vWyMPW/pirate-shark-banner-with-forum-site-address-www-imagesplitter-n.png" alt=""][img="https://i.postimg.cc/yNWLx987/pirate-shark-banner-with-forum-site-address-www-imagesplitter-n.png" alt=""]



Media Information
General
Format                                   : Matroska
Format version                           : Version 4 / Version 2
File size                                : 14.3 GiB
Duration                                 : 2 h 14 min
Overall bit rate mode                    : Variable
Overall bit rate                         : 15.2 Mb/s
Encoded date                             : UTC 2019-02-06 17:34:48
Writing application                      : mkvmerge v30.1.0 ('Forever And More') 64-bit
Writing library                          : libebml v1.3.6 + libmatroska v1.4.9

Video
ID                                       : 1
Format                                   : HEVC
Format/Info                              : High Efficiency Video Coding
Format profile                           : Main [email protected]@Main
Codec ID                                 : V_MPEGH/ISO/HEVC
Duration                                 : 2 h 14 min
Bit rate                                 : 10.5 Mb/s
Width                                    : 3 840 pixels
Height                                   : 1 606 pixels
Display aspect ratio                     : 2.40:1
Frame rate mode                          : Constant
Frame rate                               : 23.976 (24000/1001) FPS
Color space                              : YUV
Chroma subsampling                       : 4:2:0
Bit depth                                : 10 bits
Bits/(Pixel*Frame)                       : 0.071
Stream size                              : 9.87 GiB (69%)
Writing library                          : x265 3.0_RC+2-8f1c154aae5e:[Windows][GCC 8.2.0][64 bit] 10bit
Encoding settings                        : cpuid=1111039 / frame-threads=4 / numa-pools=16 / wpp / no-pmode / no-pme / no-psnr / no-ssim / log-level=2 / input-csp=1 / input-res=3840x1606 / interlace=0 / total-frames=193656 / level-idc=0 / high-tier=1 / uhd-bd=0 / ref=4 / no-allow-non-conformance / no-repeat-headers / annexb / no-aud / no-hrd / info / hash=0 / no-temporal-layers / open-gop / min-keyint=23 / keyint=250 / gop-lookahead=0 / bframes=8 / b-adapt=2 / b-pyramid / bframe-bias=0 / rc-lookahead=80 / lookahead-slices=4 / scenecut=40 / radl=0 / no-splice / no-intra-refresh / ctu=64 / min-cu-size=8 / rect / no-amp / max-tu-size=32 / tu-inter-depth=1 / tu-intra-depth=1 / limit-tu=0 / rdoq-level=2 / dynamic-rd=0.00 / no-ssim-rd / signhide / no-tskip / nr-intra=0 / nr-inter=0 / no-constrained-intra / no-strong-intra-smoothing / max-merge=3 / limit-refs=3 / limit-modes / me=3 / subme=5 / merange=57 / temporal-mvp / weightp / no-weightb / no-analyze-src-pics / deblock=-3:-3 / no-sao / no-sao-non-deblock / rd=4 / no-early-skip / no-rskip / no-fast-intra / no-tskip-fast / no-cu-lossless / b-intra / no-splitrd-skip / rdpenalty=0 / psy-rd=1.50 / psy-rdoq=5.00 / no-rd-refine / no-lossless / cbqpoffs=0 / crqpoffs=0 / rc=crf / crf=20.0 / qcomp=0.60 / qpstep=4 / stats-write=0 / stats-read=0 / ipratio=1.40 / pbratio=1.30 / aq-mode=2 / aq-strength=1.00 / cutree / zone-count=0 / no-strict-cbr / qg-size=32 / no-rc-grain / qpmax=69 / qpmin=0 / no-const-vbv / sar=0 / overscan=0 / videoformat=5 / range=0 / colorprim=2 / transfer=2 / colormatrix=2 / chromaloc=0 / display-window=0 / max-cll=0,0 / min-luma=0 / max-luma=1023 / log2-max-poc-lsb=8 / vui-timing-info / vui-hrd-info / slices=1 / no-opt-qp-pps / no-opt-ref-list-length-pps / no-multi-pass-opt-rps / scenecut-bias=0.05 / no-opt-cu-delta-qp / no-aq-motion / no-hdr / no-hdr-opt / no-dhdr10-opt / no-idr-recovery-sei / analysis-reuse-level=5 / scale-factor=0 / refine-intra=0 / refine-inter=0 / refine-mv=0 / refine-ctu-distortion=0 / no-limit-sao / ctu-info=0 / no-lowpass-dct / refine-analysis-type=0 / copy-pic=1 / max-ausize-factor=1.0 / no-dynamic-refine / no-single-sei / no-hevc-aq / qp-adaptation-range=1.00
Language                                 : English
Default                                  : Yes
Forced                                   : No

Audio
ID                                       : 2
Format                                   : Atmos / TrueHD
Codec ID                                 : A_TRUEHD
Duration                                 : 2 h 14 min
Bit rate mode                            : Variable
Bit rate                                 : 4 611 kb/s
Maximum bit rate                         : 8 277 kb/s
Channel(s)                               : Object Based / 8 channels
Channel positions                        : Object Based / Front: L C R, Side: L R, Back: L R, LFE
Sampling rate                            :  / 48.0 kHz
Frame rate                               : 1 200.000 FPS (40 spf)
Compression mode                         : Lossless
Delay relative to video                  : 27 ms
Stream size                              : 4.34 GiB (30%)
Language                                 : English
Default                                  : Yes
Forced                                   : No

Subtitle
ID                                       : 3
Format                                   : PGS
Muxing mode                              : zlib
Codec ID                                 : S_HDMV/PGS
Codec ID/Info                            : Picture based subtitle format used on BDs/HD-DVDs
Duration                                 : 2 h 11 min
Bit rate                                 : 44.0 kb/s
Count of elements                        : 4536
Stream size                              : 41.2 MiB (0%)
Language                                 : English
Default                                  : Yes
Forced                                   : No

Menu
00:00:00.000                             : :Chapter 1
00:03:48.728                             : :Chapter 2
00:07:45.465                             : :Chapter 3
00:11:16.592                             : :Chapter 4
00:17:41.810                             : :Chapter 5
00:21:03.178                             : :Chapter 6
00:27:24.184                             : :Chapter 7
00:33:34.846                             : :Chapter 8
00:37:22.281                             : :Chapter 9
00:45:24.012                             : :Chapter 10
00:52:19.594                             : :Chapter 11
00:56:57.205                             : :Chapter 12
01:03:11.412                             : :Chapter 13
01:10:44.990                             : :Chapter 14
01:15:25.729                             : :Chapter 15
01:21:45.901                             : :Chapter 16
01:26:59.172                             : :Chapter 17
01:32:18.199                             : :Chapter 18
01:36:43.923                             : :Chapter 19
01:43:25.574                             : :Chapter 20
01:50:23.283                             : :Chapter 21
01:54:22.897                             : :Chapter 22
02:00:41.108                             : :Chapter 23
02:07:53.332                             : :Chapter 24

Source Information
Release: 2160p REMUX 35.5GB SWTYBLZ

Category:Movies > HEVC/x265
Lang:English  English
Total Size:14.66 GB
Info Hash:e6b3dc5669b256d32d66981c90c39e20ee6d89ce
Added By:UTRHD
Date Added:15-02-2019 06:58:23

Files

File List: 
 File Size
Bohemian.Rhapsody.(2018).2160p.BluRay.10-bit.x265.TrueHD.7.1 Qman[UTR].mkv14.28 GB
Screenshots/Encode/Encode-1.png26 MB
Screenshots/Encode/Encode-2.png31 MB
Screenshots/Encode/Encode-4.png30 MB
Screenshots/Encode/Encode-5.png29 MB
Screenshots/Encode/Encode-6.png26 MB
Screenshots/Encode/Encode-8.png17 MB
Screenshots/Encode/Encode-9.png22 MB
Screenshots/Source/Source-1.png31 MB
Screenshots/Source/Source-2.png31 MB
Screenshots/Source/Source-4.png31 MB
Screenshots/Source/Source-5.png30 MB
Screenshots/Source/Source-6.png30 MB
Screenshots/Source/Source-8.png22 MB
Screenshots/Source/Source-9.png29 MB



Comments

There are currently no comments. Be the first one to write something !