kgf sarkar Manikarnika star trek discovery thakrey Xxx kedarnath thackeray malayalam the accidental prime minister supernatural evo aquaman telugu odiyan the flash why cheat india great british bake off s09e10 vikings tushy 18.12 1080p.mp4-ktr charlie chaplin 2 1080P Hindi mirzapur ettv mr majnu the grand tour 2018 ita Adanga Maru Tin Star etmovies dtone uri EVO malayalam 2018 movies AQUAMAN ita Bumblebee ethd ITA zero etrg venom f2 1080p 2018 maari 2 Game Of Thrones viswasam TamilRockers Kannada simmba Kannada ddr simbha tushyraw 1080p.mp4-ktr mortal engines simba petta DTOne uri the surgical strike kung fu the legend Young justice tamil robot 2.0 it brazzers it 2017 2.0 thakre Njan Prakashan glass fgt bohemian rhapsody Star Trek Discovery S02E02 
Warning! Use a VPN When Downloading Torrents!
Your IP Address is 52.206.226.77. Location is United States
Your Internet Provider is tracking your torrent activity! Hide your IP ADDRESS with a VPN!
We strongly recommend using ExpressVPN to anonymize your torrenting. 30 Day Money Back Guarantee!
Try it Now!
ETTV Recommended TV Shows
Star.Trek.Discovery.S02E10.WEBRip.x264-TBS[ettv] torrent
The.Grand.Tour.S03E11.WEB.h264-STRiFE[ettv] torrent
Law.and.Order.SVU.S20E18.HDTV.x264-KILLERS[ettv] torrent
Greys.Anatomy.S15E18.HDTV.x264-KILLERS[ettv] torrent
The.Orville.S02E11.WEB.x264-TBS[ettv] torrent
Supernatural.S14E16.HDTV.x264-SVA[ettv] torrent

ETTV Recommended SD
Boo.2019.HDRip.XViD-ETRG torrent
The.Mule.2018.HDRip.XViD-ETRG torrent
Bumblebee.2018.HDRip.XViD-ETRG torrent
A.Dogs.Way.Home.2019.HC.HDRip.XviD.AC3-EVO torrent

ETTV Recommended HD
The.Mule.2018.1080p.BluRay.x264-DRONES[EtHD] torrent
A.Dogs.Way.Home.2019.720p.HC.HDRip.x264.AC3-ETRG torrent
Abduction.2019.1080p.WEB-DL.H264.AC3-EVO[EtHD] torrent
The Quake 2018.MULTi.Blu-ray.1080p.HEVC.DTS-TrueHD.5.1-DDR torrent

ETTV Recommended UHD
The Mule 2018.2160p.UHDrip.HEVC.HDR.DDP.5.1-DDR torrent
Bumblebee 2018.2160p.UHDrip.HEVC.SDR.DDP.5.1-DDR torrent
Lord of War 2005.UHD.2160p.Blu-ray.HEVC.HDR.Atmos.7.1-DDR torrent
Dog.Soldiers.2002.UHD.2160p.HEVC.SDR-DDR torrent

ETTV Recommended Cam
Captive State 2019.HDCAM.x264.AC3-ETRG torrent
Wonder Park 2019 HDCAM x264 AC3-ETRG torrent
Alita.Battle.Angel.2019.HDTS x264.AC3-ETRG torrent
US 2019 720p HDCAM-1XBET torrent

ETTV Recommended Foreign
Talav.2017.Marathi.1080p.AMZN.WeB.DL.H264.DDP.5.1.Dus torrent
Balakrishnudu (2017) 720p UNCUT HDRip x264 Eng Subs [Dual Audio] [Hindi DD 2.0 - Telugu 5.1] Exclusive By -=!Dr.STAR!=- torrent
Simmba.2018.1080p.WEB-DL.AVC.AAC.ESub.DDR torrent
Batti Gul Meter Chalu.2018.720p.DvDRip.x264.DD.5.1-DDR torrent


Download Torrent "Being Human (2011) Season 03 S03 (1080p WEBRip x265 HEVC 10bit AAC 5.1 Joy)..."

IMDB Details
Description:

Three twenty-somethings share a house and try to live a normal life despite being a ghost, a werewolf, and a vampire.

Genre:

Drama, Fantasy, Horror

Download Torrent (Magnet)
Download Torrent (File)
Seeds: 73
Leechers: 73
Completed: 933 
Last Checked: 19-02-2019 17:34:04


Loading...
Details
Title:Being Human (2011) Season 03 S03 (1080p WEBRip x265 HEVC 10bit AAC 5.1 Joy)...
Description:
[img="https://i.postimg.cc/hjkyHjgc/pirate-shark-banner-with-forum-site-address-www-imagesplitter-n.png" alt=""][img="https://i.postimg.cc/CLHPQS2p/pirate-shark-banner-with-forum-site-address-www-imagesplitter-n.png" alt=""]
[img="https://i.postimg.cc/13vWyMPW/pirate-shark-banner-with-forum-site-address-www-imagesplitter-n.png" alt=""][img="https://i.postimg.cc/yNWLx987/pirate-shark-banner-with-forum-site-address-www-imagesplitter-n.png" alt=""]


Media Information
General
Format                                   : Matroska
Format version                           : Version 4 / Version 2
File size                                : 429 MiB
Duration                                 : 43 min 19 s
Overall bit rate                         : 1 385 kb/s
Movie name                               : Being Human S03E06 Whats Blood Got To Do With It  (1080p x265 10bit Joy)
Encoded date                             : UTC 2019-02-05 01:30:42
Writing application                      : mkvmerge v26.0.0 ('In The Game') 64-bit
Writing library                          : libebml v1.3.6 + libmatroska v1.4.9
Writing frontend                         : StaxRip v1.9.0.0, a JoyBell Encode, UTR

Video
ID                                       : 1
Format                                   : HEVC
Format/Info                              : High Efficiency Video Coding
Format profile                           : Main [email protected]@Main
Codec ID                                 : V_MPEGH/ISO/HEVC
Duration                                 : 43 min 19 s
Bit rate                                 : 1 200 kb/s
Width                                    : 1 920 pixels
Height                                   : 1 080 pixels
Display aspect ratio                     : 16:9
Frame rate mode                          : Constant
Frame rate                               : 23.976 (24000/1001) FPS
Color space                              : YUV
Chroma subsampling                       : 4:2:0
Bit depth                                : 10 bits
Bits/(Pixel*Frame)                       : 0.024
Stream size                              : 372 MiB (87%)
Writing library                          : x265 2.8+69-856f056d392e:[Windows][MSVC 1915][64 bit] 10bit
Encoding settings                        : cpuid=1111039 / frame-threads=3 / numa-pools=8 / wpp / no-pmode / no-pme / no-psnr / ssim / log-level=2 / input-csp=1 / input-res=1920x1080 / interlace=0 / total-frames=62330 / level-idc=0 / high-tier=1 / uhd-bd=0 / ref=4 / no-allow-non-conformance / no-repeat-headers / annexb / no-aud / no-hrd / info / hash=0 / no-temporal-layers / open-gop / min-keyint=23 / keyint=250 / gop-lookahead=0 / bframes=4 / b-adapt=2 / b-pyramid / bframe-bias=0 / rc-lookahead=80 / lookahead-slices=4 / scenecut=40 / radl=0 / no-intra-refresh / ctu=64 / min-cu-size=8 / no-rect / no-amp / max-tu-size=32 / tu-inter-depth=1 / tu-intra-depth=1 / limit-tu=0 / rdoq-level=2 / dynamic-rd=0.00 / ssim-rd / signhide / no-tskip / nr-intra=0 / nr-inter=0 / no-constrained-intra / strong-intra-smoothing / max-merge=3 / limit-refs=3 / limit-modes / me=3 / subme=3 / merange=57 / temporal-mvp / weightp / no-weightb / no-analyze-src-pics / deblock=2:2 / sao / no-sao-non-deblock / rd=4 / early-skip / rskip / no-fast-intra / no-tskip-fast / no-cu-lossless / no-b-intra / splitrd-skip / rdpenalty=0 / psy-rd=0.00 / psy-rdoq=1.00 / no-rd-refine / no-lossless / cbqpoffs=0 / crqpoffs=0 / rc=abr / bitrate=1200 / qcomp=0.60 / qpstep=4 / stats-write=0 / stats-read=2 / cplxblur=20.0 / qblur=0.5 / ipratio=1.40 / pbratio=1.30 / aq-mode=2 / aq-strength=0.80 / cutree / zone-count=0 / no-strict-cbr / qg-size=32 / no-rc-grain / qpmax=69 / qpmin=0 / no-const-vbv / sar=0 / overscan=0 / videoformat=5 / range=0 / colorprim=2 / transfer=2 / colormatrix=2 / chromaloc=0 / display-window=0 / max-cll=0,0 / min-luma=0 / max-luma=1023 / log2-max-poc-lsb=8 / vui-timing-info / vui-hrd-info / slices=1 / no-opt-qp-pps / no-opt-ref-list-length-pps / multi-pass-opt-rps / scenecut-bias=0.05 / no-opt-cu-delta-qp / no-aq-motion / no-hdr / no-hdr-opt / no-dhdr10-opt / no-idr-recovery-sei / analysis-reuse-level=10 / scale-factor=0 / refine-intra=0 / refine-inter=0 / refine-mv=0 / limit-sao / ctu-info=0 / no-lowpass-dct / refine-mv-type=0 / copy-pic=1 / max-ausize-factor=1.0 / no-dynamic-refine / no-single-sei
Default                                  : Yes
Forced                                   : No

Audio
ID                                       : 2
Format                                   : AAC
Format/Info                              : Advanced Audio Codec
Format profile                           : HE-AAC / LC
Codec ID                                 : A_AAC
Duration                                 : 43 min 19 s
Bit rate                                 : 183 kb/s
Channel(s)                               : 6 channels
Channel positions                        : Front: L C R, Side: L R, LFE
Sampling rate                            : 48.0 kHz / 24.0 kHz
Frame rate                               : 23.438 FPS (1024 spf)
Compression mode                         : Lossy
Delay relative to video                  : 31 ms
Stream size                              : 56.7 MiB (13%)
Language                                 : English
Default                                  : No
Forced                                   : No

Subtitle
ID                                       : 3
Format                                   : UTF-8
Codec ID                                 : S_TEXT/UTF8
Codec ID/Info                            : UTF-8 Plain Text
Duration                                 : 41 min 55 s
Bit rate                                 : 69 b/s
Count of elements                        : 749
Stream size                              : 21.4 KiB (0%)
Title                                    : English (SDH)
Language                                 : English
Default                                  : No
Forced                                   : No

Source Information
Release: Being.Human.US.S03.1080p.AMZN.WEBRip.DDP5.1.x265-SiGMA[rartv]  (35.0 GB)


Category:TV > HEVC/x265
Lang:English  English
Total Size:5.46 GB
Info Hash:48403866b1a930fa05fd2a4ecb6d52d75b32ea35
Added By:UTR
Date Added:19-02-2019 17:33:58

Files

File List: 
 File Size
Being Human S03E01 Its A Shame About Ray (1080p x265 10bit Joy).mkv432 MB
Being Human S03E02 Dead Girls Just Wanna Have Fun (1080p x265 10bit Joy).mkv432 MB
Being Human S03E03 The Teens They Are A-Changin (1080p x265 10bit Joy).mkv431 MB
Being Human S03E04 Im So Lonesome I Could Die (1080p x265 10bit Joy).mkv431 MB
Being Human S03E05 Get Outta My Dreams Get Into My Mouth (1080p x265 10bit Joy).mkv431 MB
Being Human S03E06 Whats Blood Got To Do With It (1080p x265 10bit Joy).mkv429 MB
Being Human S03E07 One Is Silver And The Other Pagan (1080p x265 10bit Joy).mkv433 MB
Being Human S03E08 Your Body Is A Condemned Wonderland (1080p x265 10bit Joy).mkv431 MB
Being Human S03E09 Of Mice And Wolfmen (1080p x265 10bit Joy).mkv417 MB
Being Human S03E10 For Those About To Rot (1080p x265 10bit Joy).mkv431 MB
Being Human S03E11 If I Only Had Raw Brain (1080p x265 10bit Joy).mkv429 MB
Being Human S03E12 Always A Bridesmaid Never Alive (1080p x265 10bit Joy).mkv432 MB
Being Human S03E13 Ruh-Roh (1080p x265 10bit Joy).mkv430 MB
Encoded by JoyBell (UTR).txt2.73 kB
folder.jpg383.28 kB
How to play HEVC (THIS FILE).txt3.42 kB
Ninite K-Lite Codecs Unattended Silent Installer and Updater.website561.00 B



Comments

There are currently no comments. Be the first one to write something !