kgf sarkar Manikarnika star trek discovery thakrey Xxx kedarnath thackeray malayalam the accidental prime minister supernatural evo aquaman telugu odiyan the flash why cheat india great british bake off s09e10 vikings tushy 18.12 1080p.mp4-ktr charlie chaplin 2 1080P Hindi mirzapur ettv mr majnu the grand tour 2018 ita Adanga Maru Tin Star etmovies dtone uri EVO malayalam 2018 movies AQUAMAN ita Bumblebee ethd ITA zero etrg venom f2 1080p 2018 maari 2 Game Of Thrones viswasam TamilRockers Kannada simmba Kannada ddr simbha tushyraw 1080p.mp4-ktr mortal engines simba petta DTOne uri the surgical strike kung fu the legend Young justice tamil robot 2.0 it brazzers it 2017 2.0 thakre Njan Prakashan glass fgt bohemian rhapsody Star Trek Discovery S02E02 
Warning! Use a VPN When Downloading Torrents!
Your IP Address is 52.206.226.77. Location is United States
Your Internet Provider is tracking your torrent activity! Hide your IP ADDRESS with a VPN!
We strongly recommend using ExpressVPN to anonymize your torrenting. 30 Day Money Back Guarantee!
Try it Now!
ETTV Recommended TV Shows
Star.Trek.Discovery.S02E10.WEBRip.x264-TBS[ettv] torrent
The.Grand.Tour.S03E11.WEB.h264-STRiFE[ettv] torrent
Law.and.Order.SVU.S20E18.HDTV.x264-KILLERS[ettv] torrent
Greys.Anatomy.S15E18.HDTV.x264-KILLERS[ettv] torrent
The.Orville.S02E11.WEB.x264-TBS[ettv] torrent
Supernatural.S14E16.HDTV.x264-SVA[ettv] torrent

ETTV Recommended SD
Boo.2019.HDRip.XViD-ETRG torrent
The.Mule.2018.HDRip.XViD-ETRG torrent
Bumblebee.2018.HDRip.XViD-ETRG torrent
A.Dogs.Way.Home.2019.HC.HDRip.XviD.AC3-EVO torrent

ETTV Recommended HD
The.Mule.2018.1080p.BluRay.x264-DRONES[EtHD] torrent
A.Dogs.Way.Home.2019.720p.HC.HDRip.x264.AC3-ETRG torrent
Abduction.2019.1080p.WEB-DL.H264.AC3-EVO[EtHD] torrent
The Quake 2018.MULTi.Blu-ray.1080p.HEVC.DTS-TrueHD.5.1-DDR torrent

ETTV Recommended UHD
The Mule 2018.2160p.UHDrip.HEVC.HDR.DDP.5.1-DDR torrent
Bumblebee 2018.2160p.UHDrip.HEVC.SDR.DDP.5.1-DDR torrent
Lord of War 2005.UHD.2160p.Blu-ray.HEVC.HDR.Atmos.7.1-DDR torrent
Dog.Soldiers.2002.UHD.2160p.HEVC.SDR-DDR torrent

ETTV Recommended Cam
Captive State 2019.HDCAM.x264.AC3-ETRG torrent
Wonder Park 2019 HDCAM x264 AC3-ETRG torrent
Alita.Battle.Angel.2019.HDTS x264.AC3-ETRG torrent
US 2019 720p HDCAM-1XBET torrent

ETTV Recommended Foreign
Talav.2017.Marathi.1080p.AMZN.WeB.DL.H264.DDP.5.1.Dus torrent
Balakrishnudu (2017) 720p UNCUT HDRip x264 Eng Subs [Dual Audio] [Hindi DD 2.0 - Telugu 5.1] Exclusive By -=!Dr.STAR!=- torrent
Simmba.2018.1080p.WEB-DL.AVC.AAC.ESub.DDR torrent
Batti Gul Meter Chalu.2018.720p.DvDRip.x264.DD.5.1-DDR torrent


Download Torrent "K.G.F.Chapter 1 Kannada (2018) (1080p AMZN WEB-DL 10bit x265 HEVC AC3 5.1 O..."

IMDB Details
Description:

N/A

Genre:

N/A

Download Torrent (Magnet)
Download Torrent (File)
Seeds: 61
Leechers: 52
Completed: 681 
Last Checked: 20-02-2019 15:32:17


Loading...
Details
Title:K.G.F.Chapter 1 Kannada (2018) (1080p AMZN WEB-DL 10bit x265 HEVC AC3 5.1 O...
Description:





Media Information
General
Format                                   : Matroska
Format version                           : Version 4 / Version 2
File size                                : 3.60 GiB
Duration                                 : 2 h 34 min
Overall bit rate                         : 3 339 kb/s
Movie name                               : NG
Encoded date                             : UTC 2019-02-18 23:25:18
Writing application                      : mkvmerge v13.0.0 ('The Juggler') 64bit
Writing library                          : libebml v1.3.4 + libmatroska v1.4.5
Writing frontend                         : StaxRip v1.6.0.0

Video
ID                                       : 1
Format                                   : HEVC
Format/Info                              : High Efficiency Video Coding
Format profile                           : Main [email protected]@Main
Codec ID                                 : V_MPEGH/ISO/HEVC
Duration                                 : 2 h 34 min
Bit rate                                 : 2 697 kb/s
Width                                    : 1 920 pixels
Height                                   : 816 pixels
Display aspect ratio                     : 2.35:1
Frame rate mode                          : Constant
Frame rate                               : 25.000 FPS
Color space                              : YUV
Chroma subsampling                       : 4:2:0
Bit depth                                : 10 bits
Bits/(Pixel*Frame)                       : 0.069
Stream size                              : 2.91 GiB (81%)
Writing library                          : x265 2.5+6-d11482e5fedb:[Windows][GCC 7.1.0][64 bit] 10bit
Encoding settings                        : cpuid=1173503 / frame-threads=3 / numa-pools=8 / wpp / no-pmode / no-pme / no-psnr / no-ssim / log-level=2 / input-csp=1 / input-res=1920x816 / interlace=0 / total-frames=231811 / level-idc=0 / high-tier=1 / uhd-bd=0 / ref=4 / no-allow-non-conformance / no-repeat-headers / annexb / no-aud / no-hrd / info / hash=0 / no-temporal-layers / open-gop / min-keyint=25 / keyint=250 / bframes=8 / b-adapt=2 / b-pyramid / bframe-bias=0 / rc-lookahead=80 / lookahead-slices=4 / scenecut=40 / no-intra-refresh / ctu=64 / min-cu-size=8 / no-rect / no-amp / max-tu-size=32 / tu-inter-depth=1 / tu-intra-depth=1 / limit-tu=0 / rdoq-level=2 / dynamic-rd=0.00 / no-ssim-rd / signhide / no-tskip / nr-intra=0 / nr-inter=0 / no-constrained-intra / no-strong-intra-smoothing / max-merge=3 / limit-refs=3 / limit-modes / me=3 / subme=5 / merange=57 / temporal-mvp / weightp / no-weightb / no-analyze-src-pics / deblock=-3:-3 / no-sao / no-sao-non-deblock / rd=5 / no-early-skip / no-rskip / no-fast-intra / no-tskip-fast / no-cu-lossless / no-b-intra / rdpenalty=0 / psy-rd=1.50 / psy-rdoq=1.00 / no-rd-refine / analysis-reuse-mode=0 / no-lossless / cbqpoffs=0 / crqpoffs=0 / rc=crf / crf=21.5 / qcomp=0.60 / qpstep=4 / stats-write=0 / stats-read=0 / ipratio=1.40 / pbratio=1.30 / aq-mode=3 / aq-strength=0.60 / cutree / zone-count=0 / no-strict-cbr / qg-size=32 / no-rc-grain / qpmax=69 / qpmin=0 / no-const-vbv / sar=0 / overscan=0 / videoformat=5 / range=0 / colorprim=2 / transfer=2 / colormatrix=2 / chromaloc=0 / display-window=0 / max-cll=0,0 / min-luma=0 / max-luma=1023 / log2-max-poc-lsb=8 / vui-timing-info / vui-hrd-info / slices=1 / opt-qp-pps / opt-ref-list-length-pps / no-multi-pass-opt-rps / scenecut-bias=0.05 / no-opt-cu-delta-qp / no-aq-motion / no-hdr / no-hdr-opt / no-dhdr10-opt / analysis-reuse-level=5 / scale-factor=0 / refine-intra=0 / refine-inter=0 / refine-mv=0 / no-limit-sao / ctu-info=0
Default                                  : Yes
Forced                                   : No

Audio
ID                                       : 2
Format                                   : E-AC-3
Format/Info                              : Enhanced Audio Coding 3
Format settings, Endianness              : Big
Codec ID                                 : A_EAC3
Duration                                 : 2 h 34 min
Bit rate mode                            : Constant
Bit rate                                 : 640 kb/s
Channel(s)                               : 6 channels
Channel positions                        : Front: L C R, Side: L R, LFE
Sampling rate                            : 48.0 kHz
Frame rate                               : 187.500 FPS (256 spf)
Compression mode                         : Lossy
Stream size                              : 707 MiB (19%)
Language                                 : Kannada
Default                                  : No
Forced                                   : No

Subtitle
ID                                       : 3
Format                                   : UTF-8
Codec ID                                 : S_TEXT/UTF8
Codec ID/Info                            : UTF-8 Plain Text
Duration                                 : 2 h 29 min
Bit rate                                 : 57 b/s
Count of elements                        : 2245
Stream size                              : 62.5 KiB (0%)
Language                                 : English
Default                                  : No
Forced                                   : No

Menu
00:00:00.000                             : en:Statutory Warning
00:01:09.000                             : en:Thank you Credits
00:01:41.000                             : en:Scene 3
00:06:52.000                             : en:Title Sequence
00:07:09.000                             : en:Scene 5
00:16:32.000                             : en:Scene 6
00:26:38.000                             : en:Scene 7
00:35:19.000                             : en:Scene 8
00:51:50.000                             : en:Scene 9
01:14:35.000                             : en:Scene 10
01:24:14.000                             : en:Scene 11
01:29:17.000                             : en:Scene 12
01:40:00.000                             : en:Scene 13
01:49:19.000                             : en:Scene 14
01:57:59.000                             : en:Scene 15
02:03:04.000                             : en:Scene 16
02:13:36.000                             : en:Scene 17
02:19:32.000                             : en:Scene 18
02:31:22.000                             : en:End Credits

Source Information
Release: K.G.F.Chapter.1.Kannada.2018.1080p.AMZN.CBR.WEB-DL.DDP5.1.H264-NG


Note From UTR
We have no issue with individuals posting or re-uploading our torrents on a platform we aren't on. However, if this is something you'd like to do, please do so in a 'as-is' format. We ask that you do not create a new torrent, include all descriptions you see above including the UTR logo, tags, notes and screenshots. If you'd like to become a permanent poster on a website we don't post to, feel free to get in contact with a UniTeam member.

If possible please donate: BTC 1QA5fum5AyXvWzdVCkQzUNvw3Ef15fHRaR


Category:Movies > HEVC/x265
Lang:English  English
Total Size:3.60 GB
Info Hash:0fbad4cefc02256cb7b12ec42243c976ea324000
Added By:UTR
Date Added:20-02-2019 15:32:14

Files

File List: 
 File Size
K.G.F.Chapter.1.Kannada.2018.1080p.AMZN.WEB-DL.10bit.x265.HEVC.AC3.5.1-Oryx[UTR].mkv3.60 GB



Comments

There are currently no comments. Be the first one to write something !