kgf sarkar Manikarnika star trek discovery thakrey Xxx kedarnath thackeray malayalam the accidental prime minister supernatural evo aquaman telugu odiyan the flash why cheat india great british bake off s09e10 vikings tushy 18.12 1080p.mp4-ktr charlie chaplin 2 1080P Hindi mirzapur ettv mr majnu the grand tour 2018 ita Adanga Maru Tin Star etmovies dtone uri EVO malayalam 2018 movies AQUAMAN ita Bumblebee ethd ITA zero etrg venom f2 1080p 2018 maari 2 Game Of Thrones viswasam TamilRockers Kannada simmba Kannada ddr simbha tushyraw 1080p.mp4-ktr mortal engines simba petta DTOne uri the surgical strike kung fu the legend Young justice tamil robot 2.0 it brazzers it 2017 2.0 thakre Njan Prakashan glass fgt bohemian rhapsody Star Trek Discovery S02E02 
Warning! Use a VPN When Downloading Torrents!
Your IP Address is 54.82.99.169. Location is United States
Your Internet Provider is tracking your torrent activity! Hide your IP ADDRESS with a VPN!
We strongly recommend using ExpressVPN to anonymize your torrenting. 30 Day Money Back Guarantee!
Try it Now!
ETTV Recommended TV Shows
Doom.Patrol.S01E06.WEBRip.x264-PBS[ettv] torrent
The.Blacklist.S06E12.HDTV.x264-SVA[ettv] torrent
Blindspot.S04E16.HDTV.x264-KILLERS[ettv] torrent
Proven.Innocent.S01E06.WEB.x264-TBS[ettv] torrent
Strike.Back.S07E09.WEBRip.x264-SHiTSPREAD[ettv] torrent
Bellator 218 Sanchez vs Karakhanyan 2 HDTV x264-Star [TJET] torrent

ETTV Recommended SD
Muse.2019.HDRip.XviD.AC3-EVO torrent
Bumblebee.2018.BDRip.XviD.AC3-EVO torrent
The.Dirt.2019.HDRip.XviD.AC3-EVO torrent
Twelve.2019.HDRip.XviD.AC3-EVO torrent

ETTV Recommended HD
Big.Kill.2018.BluRay.1080p.HEVC.DTS-HDMA.5.1-DDR torrent
St Agatha 2018.MULTi.1080p.Blu-ray.HEVC.DTS-HDMA.5.1-DDR torrent
Second Act 2018.BluRay.1080p.HEVC.DTS-HDMA.5.1-DDR torrent
Bumblebee.2018.MULTi.2160p.BluRay.HEVC..HDR.Atmos.7.1-DDR torrent

ETTV Recommended UHD
Mad.Max.1979.2160p.HDR.UHDrip.HEVC.DTS-HDMA.5.1-DDR torrent
Pet Sematary 1989.Multi.2160p.Blu-ray.HEVC.HDR.DTS-HDMA.5.1-DDR torrent
Borneo - Fascinating Asia 2016.UHD.2160p.SDR.HEVC.DTS-HDMA.5.1-DDR torrent
Bumblebee.2018.UHD.2160p.BluRay.Remux.HEVC.DD.5.1.Dolby.Vision.Remux-DDR torrent

ETTV Recommended Cam
Captive State 2019.HDCAM.x264.AC3-ETRG torrent
Wonder Park 2019 HDCAM x264 AC3-ETRG torrent
Alita.Battle.Angel.2019.HDTS x264.AC3-ETRG torrent
US.2019.720p.HDCAM.x264.AC3-ETRG torrent

ETTV Recommended Foreign
Kesari.2019.1CD.pDVD.Rip.XviD.MP3.Dus torrent
N.T.R - Mahanayakudu 2019.1080p.AMZN.Web-DL.DDP.5.1-DDR torrent
Sharato Lagu.2018.Gujarati.1080p.WEB-DL.AVC.AAC.DDR torrent
Chor Bani Thangaat Kare.2017.Gujarati.1080p.WEB-DL.AVC.AAC.DDR torrent


Download Torrent "Jackpot (2013) Hindi - 720p WEB-DL - x264 - AAC -Sun George (Requested)"

IMDB Details
Description:

Jackpot is a fast-paced thriller con, with sharp comic one-liners and crazy characters, set entirely in Goa against the backdrop of casino boats. The film goes back and forth in time, ...

Genre:

Comedy, Thriller

Download Torrent (Magnet)
Download Torrent (File)
Seeds: 227
Leechers: 190
Completed: 895 
Last Checked: 15-03-2019 11:08:56


Loading...
Details
Title:Jackpot (2013) Hindi - 720p WEB-DL - x264 - AAC -Sun George (Requested)
Description:
Jackpot (2013) Hindi - 720p WEB-DL - x264 - AAC -Sun George (Requested)















===================================================================

Source : DTOne (Thanks)

General
Format                                   : Matroska
Format version                           : Version 4
File size                                : 1.36 GiB
Duration                                 : 1 h 30 min
Overall bit rate                         : 2 151 kb/s
Movie name : Jackpot (2013) Hindi - 720p WEB-DL - x264 - AAC -Sun George (Requested)

===================================================================

Video
ID                                       : 1
Format                                   : AVC
Format/Info                              : Advanced Video Codec
Format profile                           : [email protected]
Format settings                          : CABAC / 5 Ref Frames
Format settings, CABAC                   : Yes
Format settings, RefFrames               : 5 frames
Codec ID                                 : V_MPEG4/ISO/AVC
Duration                                 : 1 h 30 min
Bit rate                                 : 2 000 kb/s
Width                                    : 1 280 pixels
Height                                   : 544 pixels
Display aspect ratio                     : 2.35:1
Frame rate mode                          : Constant
Frame rate                               : 24.000 FPS
Color space                              : YUV
Chroma subsampling                       : 4:2:0
Bit depth                                : 8 bits
Scan type                                : Progressive
Bits/(Pixel*Frame)                       : 0.120
Stream size                              : 1.25 GiB (92%)
Title                                    : Sun George

===================================================================

Audio
ID                                       : 2
Format                                   : AAC LC
Format/Info    : Advanced Audio Codec Low Complexity
Codec ID                                 : A_AAC-2
Duration                                 : 1 h 30 min
Bit rate                                 : 171 kb/s
Channel(s)                               : 2 channels
Channel layout                           : L R
Sampling rate                            : 48.0 kHz
Frame rate                               : 46.875 FPS (1024 SPF)
Compression mode                         : Lossy
Stream size                              : 111 MiB (8%)
Title                                    : Sun George
Language                                 : Hindi
Default                                  : Yes
Forced                                   : No
















Category:Movies > HD 720p
Lang:Hindi  Hindi
Total Size:1.39 GB
Info Hash:09de12a5795c2875029257f8e53ee89522db4284
Added By:sungeorge
Date Added:15-03-2019 11:08:52

  

Files

File List: 
 File Size
Jackpot (2013) Hindi - 720p WEB-DL - x264 - AAC -Sun George (Requested).mkv1.36 GB
Sample Jackpot (2013) Hindi - 720p WEB-DL - x264 - AAC -Sun George (Requested).mkv26 MB



Comments

There are currently no comments. Be the first one to write something !