avengers Yellowstone hindi arrow español suits deadpool ettv Elizabeth Bear LESBIAN ANAL SEX SLAVES shooter castle rock Killjoys S04E05 dragonheart curse S.W.A.T.2017.S01E01.HDTV.x264 KILLERS ettv IT.2017.720p.HC.HDRIP.x264.AC3 TiTAN fgt Jurassic world the 100 mountain men The Walking Dead Live pd dtone AMMORE E MALAVITA ethd Gotham wynonna earp evo Condor real time survivor bill maher the meg etmovies ETRG avengers infinity war Arrow.S06E02.HDTV.x264 LOL ettv ddr etrg big bang theory español upgrade 2018 star trek discovery español judge judy S22 Queen of The South elementary disenchantment preacher 720p BRRip x264 EVO deadpool 2 better call saul Survivor South Africa Killjoys 
Warning! Use a VPN When Downloading Torrents!
Your IP Address is 54.92.182.0. Location is United States
Your Internet Provider is tracking your torrent activity! Hide your IP ADDRESS with a VPN!
We strongly recommend using ExpressVPN to anonymize your torrenting. 30 Day Money Back Guarantee!
Try it Now!
ETTV Recommended TV Shows
Shooter.S03E09.WEB.x264-STRiFE[ettv] torrent
Wynonna.Earp.S03E05.HDTV.x264-KILLERS[ettv] torrent
Killjoys.S04E05.WEBRip.x264-PBS[ettv] torrent
Stan.Lees.Lucky.Man.S03E05.HDTV.x264-MTB[ettv] torrent

ETTV Recommended Xvid
Down.a.Dark.Hall.2018.HDRip.XViD-ETRG torrent
To.All.the.Boys.Ive.Loved.Before.2018.HDRip.XViD-ETRG torrent
Puppet.Master.The.Littlest.Reich.2018.HDRip.XViD-ETRG torrent
Riot.2018.HDRip.XviD.AC3-EVO[EtMovies] torrent

ETTV Recommended HD
Upgrade.2018.1080p.BluRay.x264-DRONES[EtHD] torrent
American.Animals.2018.1080p.BluRay.x264-DRONES[EtHD] torrent
Woman.Walks.Ahead.2017.1080p.BluRay.x264-ROVERS[EtHD] torrent
Furlough 2018 BluRay 1080p DTS-HD MA5.1 x264-MTeam[EtHD] torrent

ETTV Recommended Cam
The Meg 2018 720p TS-1XBET torrent
Mile.22.2018.HDCAM.XViD.AC3-ETRG torrent
A.X.L 2018 720p HDCAM HC ENG SUB-1XBET torrent
Alpha 2018 CAM-1XBET torrent

ETTV Recommended Foreign
Satyameva.Jayate.(2018).1-3.V2.Desi.Pre.Rip.x264.AC3-DTOne.10th.Anniversary torrent
Rolling.to.You.2018.720p.BluRay.DTS.x264-HDH[EtHD] torrent
Thamizh Padam 2 (2018) [TAMIL - 720p - WEB HDRip - x264 - DD 5.1 - ESub - 2GB] - MAZE torrent
Avengers.Infinity.War.(2018).1080p.[Dual.Audio].[Org.BD].{Hindi+Eng.6Ch}.-~{DOOMSDAY}~-. torrent

Social

Download Torrent "Arrival 2016 2160p 4K UHD Bluray HEVC Multi DTSHD 7.1 -DDR"

IMDB Details
Description:

When twelve mysterious spacecraft appear around the world, linguistics professor Louise Banks is tasked with interpreting the language of the apparent alien visitors.

Genre:

Drama | Mystery | Sci-Fi | Thriller

Download Torrent (Magnet)
Download Torrent (File)
Seeds: 62
Leechers: 36
Completed: 2,691 
Last Checked: 04-10-2017 13:46:18


Loading...
Details
Title:Arrival 2016 2160p 4K UHD Bluray HEVC Multi DTSHD 7.1 -DDR
Description:




2160p 4K UltraHD  BluRay Rip
HEVC x265 BT709

English DTSHD-MA 7.1 Audio
French DDS 5.1 Audio
Spanish DDS 5.1 Audio

English, French & Spanish Subs

SCREENSHOTS


SPECS


Source : 4K UHD BluRay @ Zeus (Thanks)
Format                                   : Matroska
File size                                : 23.5 GiB
Duration                                 : 1 h 56 min
Overall bit rate                         : 28.9 Mb/s

Video
Format                                   : HEVC
Format profile                           : Main [email protected]@Main
Bit rate                                 : 23.3 Mb/s
Width                                    : 3 840 pixels
Height                                   : 1 600 pixels
Display aspect ratio                     : 2.40:1
Frame rate                               : 23.976 (24000/1001) FPS
Bit depth                                : 8 bits
Stream size                              : 18.9 GiB (81%)
Color primaries                          : BT.709

Audio #1
Format                                   : DTS MA / Core
Bit rate                                 : 4 207 kb/s / 1 509 kb/s
Channel(s)                               : 8 channels
Stream size                              : 3.42 GiB (15%)
Language                                 : English

Audio #2
Format                                   : AC-3
Bit rate                                 : 640 kb/s
Channel(s)                               : 6 channels
Bit depth                                : 16 bits
Stream size                              : 533 MiB (2%)
Language                                 : French

Audio #3
Format                                   : AC-3
Bit rate                                 : 640 kb/s
Channel(s)                               : 6 channels
Bit depth                                : 16 bits
Stream size                              : 533 MiB (2%)
Language                                 : Spanish

Chapters                                 : YES


SAMPLE Included

A DDR Exclusive Release


Category:Movies > UltraHD/4K
Lang:English  English
Total Size:23.56 GB
Info Hash:ed25a5b2e86b2a4873fac6e69254b0b413641b1d
Added By:DDR
Date Added:04-10-2017 13:46:17

Files

File List: 
 File Size
A DDR Release !!!.txt287.00 B
Arrival 2016 2160p 4K UHD Bluray HEVC Multi DTSHD 7.1 -DDR.mkv23.46 GB
sample-Arrival 2016 2160p 4K UHD Bluray HEVC Multi DTSHD 7.1 -DDR.mkv104 MB
Torrent downloaded from ExtraTorrent.cc.txt28.00 B



Loading...
Comments

There are currently no comments. Be the first one to write something !

Disclaimer: None of the files shown here are actually hosted or transmitted by this server. The links are provided solely by this site's users. The site moderation is also a service provided by the site's users. The administrator of this site (ettv.tv) cannot be held responsible for what its users post, or any other actions of its users. You may not use this site to distribute or download any material when you do not have the legal rights to do so. It is your own responsibility to adhere to these terms.