disenchantment arrow español hitman s bodyguard solo a star wars story 720p BRRip x264 EVO wwe big bang theory español star trek discovery español gunpowder s01e03 preacher marvel week mr robot S03E04 heartland ca survivor fgt street outlaws unforgotten LESBIAN ANAL SEX SLAVES suits Hereditary wentworth Deadpool 2 ita Z.Nation.S04E02.HDTV.x264 SVA eztv Avengers Infinity war evo etmovies preacher s03e09 The walking dead s07e01 Jurassic world S.W.A.T.2017.S01E01.HDTV.x264 KILLERS ettv The flash dtone queen of the south Arrow.S06E02.HDTV.x264 LOL ettv judge judy S22 ettv etrg gotham deadpool 2 Who Is America WWE RAW salvation killjoys quantico upgrade 2018 IT.2017.720p.HC.HDRIP.x264.AC3 TiTAN ddr jurassic world fallen kingdom 1080p.BluRay.x264.DTS WiKi Stranger things better call saul s04 Hindi Ballers better call saul lucifer vikings oceans 8 the walking dead sharp objects deadpool brooklyn nine nine saul Last Week Tonight yellowstone ethd better call saul s04e03 Fear the walking dead power elementary 
Warning! Use a VPN When Downloading Torrents!
Your IP Address is 54.198.195.11. Location is United States
Your Internet Provider is tracking your torrent activity! Hide your IP ADDRESS with a VPN!
We strongly recommend using ExpressVPN to anonymize your torrenting. 30 Day Money Back Guarantee!
Try it Now!
ETTV Recommended TV Shows
Better.Call.Saul.S04E03.HDTV.x264-KILLERS[ettv] torrent
Animal.Kingdom.US.S03E13.WEBRip.x264-TBS[ettv] torrent
The.Outpost.S01E06.HDTV.x264-KILLERS[ettv] torrent
Castle.Rock.S01E07.WEBRip.x264-TBS[ettv] torrent

ETTV Recommended Xvid
Hereditary.2018.HDRip.XViD.AC3-ETRG torrent
Oceans.8.2018.HDRip.XViD-ETRG torrent
Watch.the.Sky.2018.HDRip.XviD.AC3-EVO[EtMovies] torrent
The.Capture.2018.HDRip.XViD-ETRG torrent

ETTV Recommended HD
Oceans.8.2018.1080p.WEB-DL.H264.AC3-EVO[EtHD] torrent
Hereditary.2018.1080p.WEB-DL.DD5.1.H264-CMRG[EtHD] torrent
Journey.to.Space.2015.2160p.UHD.Blu-ray.HEVC.HDR.Atmos.7.1-DTOne torrent
Deadpool-2.2018.Multi.Super.Duper.Cut.UHD.2160p.Bluray.x265.HDR.Atmos.7.1.DTOne torrent

ETTV Recommended Cam
Mile.22.2018.HDCAM.XViD.AC3-ETRG torrent
A.X.L 2018 720p HDCAM HC ENG SUB-1XBET torrent
Alpha 2018 NEW 720p HDCAM ENG SUB-24HD torrent
Crazy.Rich.Asians.2018.CAM.XViD.AC3-ETRG torrent

ETTV Recommended Foreign
RX100.2018.1080p.AMZN.HDRip.DDP.5.1-DTOne torrent
Deadpool.2.(2018).1080p.[Super.Duper.Cut.UNRATED].[Dual.Audio].[Org.BD].{Hindi+Eng.6Ch}.-~{DOOMSDAY}~-. torrent
Businessman (2012) 720p UNCUT BluRay x264 Eng Subs [Dual Audio] [Hindi DD 2.0 - Telugu DD 5.1] Exclusive By -=!Dr.STAR!=- torrent
Satyameva Jayate 2018 Hindi DesiScr 720p x264 AAC - mkvCinemas torrent

Social

Download Torrent "Lucy 2014 2160p 4K UHD BluRay HDR10 HEVC BT2020 DTS-HD 5.1 Subs -DDR"

IMDB Details
Description:

A woman, accidentally caught in a dark deal, turns the tables on her captors and transforms into a merciless warrior evolved beyond human logic.

Genre:

Action | Sci-Fi | Thriller

Download Torrent (Magnet)
Download Torrent (File)
Seeds: 33
Leechers: 12
Completed: 262 
Last Checked: 04-10-2017 13:46:53


Details
Title:Lucy 2014 2160p 4K UHD BluRay HDR10 HEVC BT2020 DTS-HD 5.1 Subs -DDR
Description:



4K UltraHD HDR10 HEVC 10 Bits BT2020

English DTSHD-MA 5.1 Audio

English & French subs

Download Only If you have a 4K HDR TV but...


You can plays this on a non HDR 4K TV or Monitor with the following tweaks:

- Install MadVR latest version
- Install PotPlayer or MPC-BE or MPC HC
- Latest LAV Filter

Setup MADVR properties to correspond to your display caracteristics.

Set the renderer in player (MPC or Pot) to MADVR
Set the filter to MADVR

Without the above tweakings, On non-HDR display, this rip will look very DULL (nearly like a grey black and white movie)
The above tweak will give you a lots better quality than a BT709 rip on a non-HDR 4K monitor.
BUT YOU WILL NEVER GET THE SAME SUPERIOR QUALITY OF A TRUE HDR10 TV

because only HDR10 TV can show nits from 0.0005 to 1000, which is required for best viewing of this rip.
Normal Non-HDR 4K TV are limited to arround 300 to 400 nits in the best cases and non 4K monitor & TV are limited to max 200 nits.

Even though some are claiming that you can get 1000 nits HDR on a non HDR display, this is not true and a technical BS.
Your TV or Monitor is designed with 200 nits from the drawing board cannot miraculously display 1000 nits.

Please test your setup with the included sample before downloading.

This rip has been play tested on SUHD Samsung TV via a USB drive directly plugged on the TV.

SCREENSHOTS

As of now it is not possible to take screenshots from a HDR playback.
One of the reason is that there is not yet any HDR 4K PC monitor on the market but they are coming (Asus LG ACER and others had some on show in CES 2017 last month).

Thus download the sample to check if the quality is good for you.  

Here is a print-screen from a playback via MADVR on the PC monitor, which is limited to 400 nits.


 
SPECS


Source:4H UHD HDR 10 BluRay

Format                                   : Matroska
File size                                : 21.9 GiB
Duration                                 : 1 h 29 min
Overall bit rate                         : 35.1 Mb/s
Encoded date                             : UTC 2017-02-09 21:31:19

Video
Format                                   : HEVC
Format/Info                              : High Efficiency Video Coding
Format profile                           : Main [email protected]@Main
Bit rate                                 : 30.8 Mb/s
Width                                    : 3 840 pixels
Height                                   : 1 600 pixels
Display aspect ratio                     : 2.40:1
Frame rate mode                          : Constant
Frame rate                               : 23.976 (23976/1000) FPS
Chroma subsampling                       : 4:2:0 (Type 2)
Bit depth                                : 10 bits
Stream size                              : 19.2 GiB (88%)
Writing library                          : x265 10bit
Color range                              : Limited
Color primaries                          : BT.2020
Transfer characteristics                 : SMPTE ST 2084
Matrix coefficients                      : BT.2020 non-constant

Maximum Content Light Level              : 1000 cd/m2
Maximum Frame-Average Light Level        : 400 cd/m2


Audio
Format                                   : DTS
Format profile                           : MA / ES Matrix / Core
Bit rate                                 : 4 284 kb/s / 1 509 kb/s
Channel(s)                               : 6 channels
Bit depth                                : 24 bits
Stream size                              : 2.67 GiB (12%)
Language                                 : English

Chapters                                 : YES


SAMPLE Included

A DDR Exclusive Encode
Category:Movies > UltraHD/4K
Lang:English  English
Total Size:22.06 GB
Info Hash:04a8bd0bda202a2355c1d62fa1970f91ca42596b
Added By:DDR
Date Added:04-10-2017 13:46:52

Files

File List: 
 File Size
A DDR Release !!!.txt287.00 B
Lucy 2014 2160p 4K UHD BluRay HDR10 HEVC BT2020 DTS-HD 5.1 Subs -DDR.mkv21.92 GB
sample-Lucy 2014 2160p 4K UHD BluRay HDR10 HEVC BT2020 DTS-HD 5.1 Subs -DDR.mkv140 MB
Torrent downloaded from ExtraTorrent.cc.txt28.00 B



Loading...
Comments

There are currently no comments. Be the first one to write something !

Disclaimer: None of the files shown here are actually hosted or transmitted by this server. The links are provided solely by this site's users. The site moderation is also a service provided by the site's users. The administrator of this site (ettv.tv) cannot be held responsible for what its users post, or any other actions of its users. You may not use this site to distribute or download any material when you do not have the legal rights to do so. It is your own responsibility to adhere to these terms.