disenchantment arrow español hitman s bodyguard solo a star wars story 720p BRRip x264 EVO wwe big bang theory español star trek discovery español gunpowder s01e03 preacher marvel week mr robot S03E04 heartland ca survivor fgt street outlaws unforgotten LESBIAN ANAL SEX SLAVES suits Hereditary wentworth Deadpool 2 ita Z.Nation.S04E02.HDTV.x264 SVA eztv Avengers Infinity war evo etmovies preacher s03e09 The walking dead s07e01 Jurassic world S.W.A.T.2017.S01E01.HDTV.x264 KILLERS ettv The flash dtone queen of the south Arrow.S06E02.HDTV.x264 LOL ettv judge judy S22 ettv etrg gotham deadpool 2 Who Is America WWE RAW salvation killjoys quantico upgrade 2018 IT.2017.720p.HC.HDRIP.x264.AC3 TiTAN ddr jurassic world fallen kingdom 1080p.BluRay.x264.DTS WiKi Stranger things better call saul s04 Hindi Ballers better call saul lucifer vikings oceans 8 the walking dead sharp objects deadpool brooklyn nine nine saul Last Week Tonight yellowstone ethd better call saul s04e03 Fear the walking dead power elementary 
Warning! Use a VPN When Downloading Torrents!
Your IP Address is 54.224.11.137. Location is United States
Your Internet Provider is tracking your torrent activity! Hide your IP ADDRESS with a VPN!
We strongly recommend using ExpressVPN to anonymize your torrenting. 30 Day Money Back Guarantee!
Try it Now!
ETTV Recommended TV Shows
Better.Call.Saul.S04E03.HDTV.x264-KILLERS[ettv] torrent
Animal.Kingdom.US.S03E13.WEBRip.x264-TBS[ettv] torrent
The.Outpost.S01E06.HDTV.x264-KILLERS[ettv] torrent
Castle.Rock.S01E07.WEBRip.x264-TBS[ettv] torrent

ETTV Recommended Xvid
Hereditary.2018.HDRip.XViD.AC3-ETRG torrent
Oceans.8.2018.HDRip.XViD-ETRG torrent
Watch.the.Sky.2018.HDRip.XviD.AC3-EVO[EtMovies] torrent
The.Capture.2018.HDRip.XViD-ETRG torrent

ETTV Recommended HD
Oceans.8.2018.1080p.WEB-DL.H264.AC3-EVO[EtHD] torrent
Hereditary.2018.1080p.WEB-DL.DD5.1.H264-CMRG[EtHD] torrent
Journey.to.Space.2015.2160p.UHD.Blu-ray.HEVC.HDR.Atmos.7.1-DTOne torrent
Deadpool-2.2018.Multi.Super.Duper.Cut.UHD.2160p.Bluray.x265.HDR.Atmos.7.1.DTOne torrent

ETTV Recommended Cam
Mile.22.2018.HDCAM.XViD.AC3-ETRG torrent
A.X.L 2018 720p HDCAM HC ENG SUB-1XBET torrent
Alpha 2018 NEW 720p HDCAM ENG SUB-24HD torrent
Crazy.Rich.Asians.2018.CAM.XViD.AC3-ETRG torrent

ETTV Recommended Foreign
RX100.2018.1080p.AMZN.HDRip.DDP.5.1-DTOne torrent
Deadpool.2.(2018).1080p.[Super.Duper.Cut.UNRATED].[Dual.Audio].[Org.BD].{Hindi+Eng.6Ch}.-~{DOOMSDAY}~-. torrent
Businessman (2012) 720p UNCUT BluRay x264 Eng Subs [Dual Audio] [Hindi DD 2.0 - Telugu DD 5.1] Exclusive By -=!Dr.STAR!=- torrent
Satyameva Jayate 2018 Hindi DesiScr 720p x264 AAC - mkvCinemas torrent

Social

Download Torrent "The.Hateful.Eight.2015.2160p.REMUX DCPRip.Eng -DDR.mkv"

IMDB Details
Description:

In the dead of a Wyoming winter, a bounty hunter and his prisoner find shelter in a cabin currently inhabited by a collection of nefarious characters.

Genre:

Crime | Drama | Mystery | Thriller | Western

Download Torrent (Magnet)
Download Torrent (File)
Seeds: 26
Leechers: 24
Completed: 283 
Last Checked: 04-10-2017 13:47:39


Details
Title:The.Hateful.Eight.2015.2160p.REMUX DCPRip.Eng -DDR.mkv
Description:




** Hateful Eight **

** 2015**

** 2160p UHD 4K / DCPrip / x264

English DTS-HDMA 5.1 **


** English + SHD + Russian Subtitle(s) **



[ SCREENS ]



[ Info ]

Source : DCP Rip  @ UHDClub
General
Format                                   : Matroska
File size                                : 38.1 GiB
Duration                                 : 2 h 40 min
Overall bit rate                         : 33.9 Mb/s

Video
Format                                   : AVC
Format/Info                              : Advanced Video Codec
Format profile                           : [email protected]
Format settings, CABAC                   : Yes
Format settings, ReFrames                : 8 frames
Codec ID                                 : V_MPEG4/ISO/AVC
Duration                                 : 2 h 40 min
Bit rate                                 : 30.3 Mb/s
Width                                    : 3 840 pixels
Height                                   : 1 396 pixels
Display aspect ratio                     : 2.751
Frame rate mode                          : Constant
Frame rate                               : 25.000 FPS
Color space                              : YUV
Chroma subsampling                       : 4:2:0
Bit depth                                : 8 bits
Scan type                                : Progressive
Bits/(Pixel*Frame)                       : 0.226
Stream size                              : 34.1 GiB (90%)
Title                                    : The Hateful Eight (2015)
Language                                 : English
Default                                  : Yes
Forced                                   : No

Audio
Format                                   : DTS
Format/Info                              : Digital Theater Systems
Format profile                           : MA / Core
Mode                                     : 16
Format settings, Endianness              : Big
Codec ID                                 : A_DTS
Duration                                 : 2 h 40 min
Bit rate mode                            : Variable / Constant
Bit rate                                 : 3 550 kb/s / 1 509 kb/s
Channel(s)                               : 6 channels
Channel positions                        : Front: L C R, Side: L R, LFE
Sampling rate                            : 48.0 kHz
Frame rate                               : 93.750 FPS (512 spf)
Bit depth                                : 24 bits
Compression mode                         : Lossless / Lossy
Stream size                              : 3.99 GiB (10%)
Title                                    : DTS-HD MA 5.1 - Blu-ray
Language                                 : English
Default                                  : No
Forced                                   : No

Chapters : YES

[ Ultra High Speed Seeding !!! ]

Category:Movies > BluRay Disc/Remux
Lang:English  English
Total Size:38.06 GB
Info Hash:819affa4490e49d4bc30699a0415fe0dc4174cb7
Added By:DDR
Date Added:04-10-2017 13:47:38

Files

File List: 
 File Size
The.Hateful.Eight.2015.2160p.REMUX DCPRip.Eng -DDR.mkv38.06 GB



Loading...
Comments

There are currently no comments. Be the first one to write something !

Disclaimer: None of the files shown here are actually hosted or transmitted by this server. The links are provided solely by this site's users. The site moderation is also a service provided by the site's users. The administrator of this site (ettv.tv) cannot be held responsible for what its users post, or any other actions of its users. You may not use this site to distribute or download any material when you do not have the legal rights to do so. It is your own responsibility to adhere to these terms.