xxx tushyraw 1080p.mp4-ktr arrow robot 2.0 AQUAMAN ita star trek discovery español kedarnath Roma etrg Ita the gifted Star Trek Discovery manifest complete season dtone ethd tamil true detective s03e03 zero you Etrg simmba mirzapur 2160p Simba wwe fgt telugu bohemian rhapsody kgf 2018 ITA big bang theory español 2.0 a star is born The Favourite ddr mortal engines the flash petta aquaman Arrow S07E10 anal vikings tushy 18.12 1080p.mp4-ktr ncis great british bake off s09e10 etmovies mom glass fbi evo 1080P uri viswasam simbha ettv 0 supergirl TRUE DETECTIVE The Flash S05E11 game of thrones Bohemian Rhapsody ita flash The Rookie brazzers gotham Malayalam IT HINDI bumblebee 
Warning! Use a VPN When Downloading Torrents!
Your IP Address is 100.24.46.10. Location is United States
Your Internet Provider is tracking your torrent activity! Hide your IP ADDRESS with a VPN!
We strongly recommend using ExpressVPN to anonymize your torrenting. 30 Day Money Back Guarantee!
Try it Now!
ETTV Recommended TV Shows
The.Flash.2014.S05E11.HDTV.x264-SVA[ettv] torrent
The.Gifted.S02E13.WEB.x264-TBS[ettv] torrent
The.Rookie.S01E11.HDTV.x264-KILLERS[ettv] torrent
Roswell.New.Mexico.S01E02.HDTV.x264-SVA[ettv] torrent
FBI.S01E12.HDTV.x264-SVA[ettv] torrent
Burden.of.Truth.S02E03.WEBRip.x264-TBS[ettv] torrent

ETTV Recommended SD
Killer.High.2018.HDRip.XViD-ETRG torrent
If.Beale.Street.Could.Talk.2018.DVDScr.XVID.AC3.HQ.Hive-CM8 torrent
Can.You.Ever.Forgive.Me.2018.DVDScr.XVID.AC3.SHQ.Hive-CM8[EtMovies] torrent
Aquamen.2018.HC.HDRip.XviD.AC3-EVO[EtMovies] torrent

ETTV Recommended HD
Bohemian.Rhapsody.2018.1080p.WEB-DL.DD5.1.H264-CMRG[EtHD] torrent
King Of Thieves 2018.Blu-ray.1080p.HEVC.DTS-HDMA.5.1-DTOne torrent
Railroad Tigers 2016 Multi GBR Blu-ray 1080p HEVC DTS-X.7.1-DTOne torrent
The Seagull 2018.Blu-ray.1080p.HEVC.DTS-HDMA.5.1-DTOne torrent

ETTV Recommended UHD
Pacific.Rim.Uprising.2018.Multi.UHD.2160p.Bluray.x265.HDR.Atmos.7.1.En+Hi+]-DTOne torrent
Hunter Killer 2018.UHD.BluRay.2160p.x265.Atmos.7.1-DTOne torrent
IMAX.Antartica on the edge 2011-2013.MULTi.2160p.BluRay.x265.SDR.DTS-HD.MA.5.1 torrent
The.Nutcracker.and.the.Four.Realms.2018.UHD.BluRay.2160p.x265.Atmos.7.1.-DTOne torrent

ETTV Recommended Cam
Second Act 2018 HDCAM x264 AC3-ETRG torrent
Glass 2019 HDCAM  x264 AC3-ETRG torrent
City of Lies 2019 720p HDCAM HC ENG SUB-1XBET torrent
Creed 2 2018 HDTC x264 AC3-ETRG torrent

ETTV Recommended Foreign
Big Brother 2018.CHI.BluRay.1080p.HEVC.TrueHD.5.1-DTOne torrent
Jagga Jiunda E.2018.1080p.AMZN.WeB.DL.H264.DDP.2.0.DTOne torrent
Stratton (2017) 720p BluRay x264 Eng Subs [Dual Audio] [Hindi Org DD 2.0 - English 2.0] Exclusive By -=!Dr.STAR!=- torrent
Mr. Chandramouli (2018) 720p UNCUT HDRip x264 Eng Subs [Dual Audio] [Hindi DD 2.0 - Tamil 5.1] Exclusive By -=!Dr.STAR!=- torrent


Download Torrent "Interstellar (2014) 1080p Blu-Ray x264 DTSHD 5.1 -DDR"

IMDB Details
Description:

A team of explorers travel through a wormhole in space in an attempt to ensure humanity's survival.

Genre:

Adventure | Drama | Sci-Fi

Download Torrent (Magnet)
Download Torrent (File)
Seeds: 16
Leechers: 18
Completed: 98 
Last Checked: 04-10-2017 14:21:09


Details
Title:Interstellar (2014) 1080p Blu-Ray x264 DTSHD 5.1 -DDR
Description:



HQ 1080p Blu-Ray Rip x264

English DTSHD-MA 5.1 Audio

English/French/Spanish/Portuguese Subs

SCREENSHOTS


SPECS

Source: Blu-ray

Format                                   : Matroska
File size                                : 16.2 GiB
Duration                                 : 2 h 49 min
Overall bit rate                         : 13.7 Mb/s

Video
Format                                   : AVC
Format/Info                              : Advanced Video Codec
Format profile                           : [email protected]
Format settings, CABAC                   : Yes
Format settings, ReFrames                : 5 frames
Codec ID                                 : V_MPEG4/ISO/AVC
Duration                                 : 2 h 49 min
Bit rate                                 : 10.0 Mb/s
Width                                    : 1 920 pixels
Height                                   : 800 pixels
Display aspect ratio                     : 2.40:1
Frame rate mode                          : Constant
Frame rate                               : 23.976 (24000/1001) FPS
Color space                              : YUV
Chroma subsampling                       : 4:2:0
Bit depth                                : 8 bits
Scan type                                : Progressive
Bits/(Pixel*Frame)                       : 0.272
Stream size                              : 11.8 GiB (73%)
Default                                  : Yes
Forced                                   : No
Color range                              : Limited
Color primaries                          : BT.709
Transfer characteristics                 : BT.709
Matrix coefficients                      : BT.709

Audio #1
Format                                   : DTS
Format/Info                              : Digital Theater Systems
Format profile                           : MA / Core
Mode                                     : 16
Format settings, Endianness              : Big
Codec ID                                 : A_DTS
Duration                                 : 2 h 49 min
Bit rate mode                            : Variable / Constant
Bit rate                                 : 3 693 kb/s / 1 509 kb/s
Channel(s)                               : 6 channels
Channel positions                        : Front: L C R, Side: L R, LFE
Sampling rate                            : 48.0 kHz
Frame rate                               : 93.750 FPS (512 spf)
Bit depth                                : 24 bits
Compression mode                         : Lossless / Lossy
Stream size                              : 4.36 GiB (27%)
Language                                 : English
Default                                  : Yes
Forced                                   : No

Chapters                                 : YES
SAMPLE Included

A DDR Exclusive Encode
Category:Movies > HD 1080p
Lang:English  English
Total Size:16.33 GB
Info Hash:2a0f760c8865c171915e4e751953d6e8253e278a
Added By:DDR
Date Added:04-10-2017 14:21:09

Files

File List: 
 File Size
A DDR Release !!!.txt287.00 B
Interstellar (2014) 1080p Blu-Ray x264 DTSHD -DDR.mkv16.24 GB
sample-Interstellar (2014) 1080p Blu-Ray x264 DTSHD -DDR.mkv95 MB
Torrent downloaded from ExtraTorrent.cc.txt28.00 B



Comments

There are currently no comments. Be the first one to write something !