AMMORE E MALAVITA judge judy S22 Elizabeth Bear the flash ita etrg adobe cc 2018 adobe 2018 ita better call saul Killjoys S04E05 Disenchantment Live pd avengers infinity war arrow español game of thrones ddr evo The Walking Dead LESBIAN ANAL SEX SLAVES dtone preacher legends of tomorrow ita etmovies deadpool shooter rhinoceros 6 ETRG arrow ita big bang theory español avid ethd Power ettv Deadpool 2 ita Queen of The South suits 720p BRRip x264 EVO elementary fgt hindi IT.2017.720p.HC.HDRIP.x264.AC3 TiTAN the 100 avengers Yellowstone killjoys the flash 4x13 upgrade 2018 wwe Arrow.S06E02.HDTV.x264 LOL ettv Condor 1080p Survivor S.W.A.T.2017.S01E01.HDTV.x264 KILLERS ettv deadpool 2 fringe ita the flash ita AMZN jurassic world Jurassic World Fallen Kingdom 
Warning! Use a VPN When Downloading Torrents!
Your IP Address is 54.198.41.76. Location is United States
Your Internet Provider is tracking your torrent activity! Hide your IP ADDRESS with a VPN!
We strongly recommend using ExpressVPN to anonymize your torrenting. 30 Day Money Back Guarantee!
Try it Now!
ETTV Recommended TV Shows
Preacher.S03E09.HDTV.x264-SVA[ettv] torrent
Fear.the.Walking.Dead.S04E10.HDTV.x264-SVA[ettv] torrent
Sharp.Objects.S01E07.WEBRip.x264-PBS[ettv] torrent
WWE SummerSlam 2018 PPV WEB h264-HEEL [TJET] torrent

ETTV Recommended Xvid
Beast.2018.BRRip.XviD.AC3-EVO[EtMovies] torrent
Breaking.And.Exiting.2018.HDRip.XviD.AC3-EVO[EtMovies] torrent
Benched.2018.HDRip.XviD.AC3-EVO[EtMovies] torrent
Charismata.2017.DVDRip.XViD-ETRG torrent

ETTV Recommended HD
American.Animals.2018.1080p.BluRay.x264-DRONES[EtHD] torrent
Woman.Walks.Ahead.2017.1080p.BluRay.x264-ROVERS[EtHD] torrent
Beast.2017.1080p.BluRay.X264-AMIABLE[EtHD] torrent
Deadpool-2.2018.Super.Duper.Cut.UHD.2160p.Bluray.Remux.Atmos.7.1-DTOne torrent

ETTV Recommended Cam
Mile.22.2018.HDCAM.XViD.AC3-ETRG torrent
A.X.L 2018 720p HDCAM HC ENG SUB-1XBET torrent
Alpha 2018 NEW 720p HDCAM ENG SUB-24HD torrent
Crazy.Rich.Asians.2018.CAM.XViD.AC3-ETRG torrent

ETTV Recommended Foreign
Satyameva.Jayate.(2018).1-3.V2.Desi.Pre.Rip.x264.AC3-DTOne.10th.Anniversary torrent
Thamizh Padam 2 (2018) [TAMIL - 720p - WEB HDRip - x264 - DD 5.1 - ESub - 2GB] - MAZE torrent
Avengers Infinity War 2018 BRRip 720p Dual Audio [Hindi Org BD 5.1 - Eng] ESub - mkvCinemas torrent
The.Mimic.2017.1080p.BluRay.x264-SADPANDA[EtHD] torrent

Social

Download Torrent "Batman vs Superman (2016) 1080p mHD Blu-ray AAC 5.1 MSubs Ultimate Edition ..."

IMDB Details
Description:

Investigative reporter Clarke Cable takes on Zack Snyder's superhero tour de force 'Batman vs Superman' and settles a dispute between two passionate village dancers.

Genre:

Comedy | Talk-Show

Download Torrent (Magnet)
Download Torrent (File)
Seeds: 20
Leechers: 13
Completed: 130 
Last Checked: 04-10-2017 14:21:42


Details
Title:Batman vs Superman (2016) 1080p mHD Blu-ray AAC 5.1 MSubs Ultimate Edition ...
Description:



1080p mHD Blu-ray Rip x264

AAC 5.1 English Audio

English, French, Spanish, Portuguese & Thai Subtitles













[b]Specs:

Source: BD50 @ DDR

Format                                   : Matroska
File size                                : 3.99 GiB
Duration                                 : 3h 2mn
Overall bit rate                         : 3 127 Kbps
Encoded date                             : UTC 2016-07-12 01:03:31

Video
Format                                   : AVC
Format profile                           : [email protected]
Duration                                 : 3h 2mn
Bit rate                                 : 2 920 Kbps
Width                                    : 1 920 pixels
Height                                   : 800 pixels
Display aspect ratio                     : 2.40:1
Frame rate mode                          : Constant
Frame rate                               : 23.976 (24000/1001) fps
Color space                              : YUV
Chroma subsampling                       : 4:2:0
Bit depth                                : 8 bits
Scan type                                : Progressive
Bits/(Pixel*Frame)                       : 0.079
Stream size                              : 3.72 GiB (93%)

Format                                   : Atmos / TrueHD
Format                                   : AAC
Format/Info                              : Advanced Audio Codec
Format profile                           : LC
Codec ID                                 : A_AAC
Duration                                 : 3h 2mn
Bit rate                                 : 192 Kbps
Channel(s)                               : 6 channels
Channel positions                        : Front: L C R, Side: L R, LFE
Sampling rate                            : 48.0 KHz
Frame rate                               : 46.875 fps (1024 spf)
Compression mode                         : Lossy
Delay relative to video                  : 9ms
Stream size                              : 250 MiB (6%)
Language                                 : English
Default                                  : Yes
Forced                                   : No




Chapters : YES - 16
SAMPLE Included

A DDR Exclusive Encode[/b]
Category:Movies > HD 1080p
Lang:English  English
Total Size:4.02 GB
Info Hash:504bc6526dbf886d8974f561527bdd438e1e5c99
Added By:DDR
Date Added:04-10-2017 14:21:41

Files

File List: 
 File Size
(sample) Batman vs Superman (2016) 1080p mHD Blu-ray AAC 5.1 MSubs Ultimate Edition -DDR.mkv35 MB
Batman vs Superman (2016) 1080p mHD Blu-ray AAC 5.1 MSubs Ultimate Edition -DDR.mkv3.99 GB
Torrent Downloaded From ExtraTorrent.cc.txt380.00 B



Loading...
Comments

There are currently no comments. Be the first one to write something !

Disclaimer: None of the files shown here are actually hosted or transmitted by this server. The links are provided solely by this site's users. The site moderation is also a service provided by the site's users. The administrator of this site (ettv.tv) cannot be held responsible for what its users post, or any other actions of its users. You may not use this site to distribute or download any material when you do not have the legal rights to do so. It is your own responsibility to adhere to these terms.