italian titans dtone etmovies Ray Donovan windows 10 2 madam secretary 720p YIFY game of thrones ita Bohemian Rhapsody big bang theory the big bang theory christmas Nightflyers the flash fgt WWE 1080p 2018 Legends of Tomorrow lethal weapon 0 anal HINDI supergirl s04e09 Legends of tomorrow s04e08 UHD Aquaman 720p Ncis EVO FBI evo the walking dead movies 2018 Arrow S07E09 Dtone 2018 ita ettv star trek discovery español venom supergirl the flash s05e09 2160p black lightning s02e09 rogets 2018 movies ıt 2017 ethd Vikings 1080p YIFY doctor who Black lightning IT Outlander S04E06 1080p Xxx 1 3 ETRG ddr the rookie flash SUPERNATURAL ita 2018 x265 Arrow etrg BBC 
Warning! Use a VPN When Downloading Torrents!
Your IP Address is 54.226.36.60. Location is United States
Your Internet Provider is tracking your torrent activity! Hide your IP ADDRESS with a VPN!
We strongly recommend using ExpressVPN to anonymize your torrenting. 30 Day Money Back Guarantee!
Try it Now!
ETTV Recommended TV Shows
Supergirl.S04E09.HDTV.x264-SVA[ettv] torrent
NCIS.S16E10.HDTV.x264-SVA[ettv] torrent
The.Rookie.S01E08.HDTV.x264-KILLERS[ettv] torrent
Black.Lightning.S02E09.WEB.h264-TBS[ettv] torrent

ETTV Recommended Xvid
Night.School.2018.HDRip.XViD-ETRG torrent
White.Boy.Rick.2018.HDRip.XViD-ETRG torrent
Troy The Resurrection of Aeneas.2018.HDRip.XviD.AC3-EVO torrent
First.Man.2018.HDRip.XviD.AC3-EVO[EtMovies] torrent

ETTV Recommended HD
Night.School.2018.1080p.WEB-DL.H264.AC3-EVO[EtHD] torrent
The.Predator.2018.MULTi.BluRay.1080p.HEVC.DTS-HD.MA7.1-DTOne torrent
Small Foot 2018.MULTi.Bluray.1080p.HEVC.DTS-HDMA.5.1-DTOne torrent
First.Man.2018.1080p.WEB-DL.H264.AC3-EVO[EtHD] torrent

ETTV Recommended UHD
Mission Impossible - Fallout.2018.IMAX.Muti.UHD.2160p.Bluray.x265.Atmos.7.1[En+Hi+]-DTOne torrent
Venom 2018.MULTi.UHD.2160p.BluRay.x265.HDR.Atmos.7.1-DTOne torrent
The Nun 2018 MULTi.UHD.2160p.Bluray.x265.HDR.Atmos.7.1-DTOne torrent
River Runs Red 2018.UHD.2160p.Bluray.x265.HDR.DTS-HDMA..1-DTOne torrent

ETTV Recommended Cam
The Possession of Hannah Grace 2018 HDCAM.XViD.AC3-ETRG torrent
Fantastic Beasts The Crimes of Grindelwald 2018 HD-TS.XViD.AC3-ETRG torrent
Creed 2 2018.NEW HDCAM.XViD.AC3-ETRG torrent
Instant.Family.2018.HDCAM.x264.AC3-ETRG torrent

ETTV Recommended Foreign
Pandora.2016.KOR.Bluray.1080p.HEVC.DTS-HDMA.5.1-DTOne torrent
Teri Bhabhi Hai Pagle (2018) 1080p UntoucheD HDTv - AVC - AAC - DTOne.mkv torrent
Jalebi - The Taste of Everlasting Love (2018) 1080p AMZN WEB-DL DDP 5.1 ESub - DTOne torrent
Manmarziyaa.2018.2018.1080.EroS.WeB.DL.ACC.AVC.DTOne.mp4 torrent


Download Torrent "Justice League (2017).720.H264.italian.english.Ac3-5.1.sub.ita.eng.MIRCrew"

IMDB Details
Description:

Fueled by his restored faith in humanity and inspired by Superman's selfless act, Bruce Wayne enlists the help of his newfound ally, Diana Prince, to face an even greater enemy.

Genre:

Action, Adventure, Fantasy

Download Torrent (Magnet)
Download Torrent (File)
Seeds: 3,713
Leechers: 2,003
Completed: 31,609 
Last Checked: 07-03-2018 10:23:32


Loading...
Details
Title:Justice League (2017).720.H264.italian.english.Ac3-5.1.sub.ita.eng.MIRCrew
Description:
Justice League (2017).720.H264.italian.english.Ac3-5.1.sub.ita.eng.MIRCrew


NO FOUND ONLY ORIGINAL RELEASE



My release is always in double track audio italian and Original audio
for select it use VLC or dvd player home
not use wmp

Justice League (2017).720

Qualità MIRCrew in HD 720p da 2,3 gb







Lingua originale    inglese
Paese di produzione    Stati Uniti d'America
Anno    2017
Durata    120 min[
Rapporto    1.85 : 1
Genere    azione, fantascienza, fantastico, avventura
Regia    Zack Snyder
Soggetto    Gardner Fox (fumetto)
Zack Snyder e Chris Terrio (soggetto)
Sceneggiatura    Chris Terrio, Joss Whedon[2]
Produttore    Deborah Snyder, Geoff Johns, Jon Berg, Charles Roven
Produttore esecutivo    Ben Affleck, Wesley Coller, Daniel S. Kaminsky, Curtis Kanemoto, Benjamin Melniker, Christopher Nolan, Jim Rowe, Chris Terrio, Emma Thomas, Michael E. Uslan[3]
Casa di produzione    DC Films, DC Entertainment, Warner Bros. Pictures RatPac-Dune Entertainment, Cruel and Unusual Films, Atlas Entertainment
Distribuzione (Italia)    Warner Bros. Pictures
Fotografia    Fabian Wagner
Montaggio    David Brenner, Richard Pearson, Martin Walsh
Effetti speciali    Mark Holt, John Des Jardin, Keith Miller, Thomas Proctor
Musiche    Danny Elfman
Scenografia    Patrick Tatopoulos
Costumi    Michael Wilkinson
Trucco    Karen Cohen, Lee Green




    Ben Affleck: Bruce Wayne / Batman
    Henry Cavill: Kal-El / Clark Kent / Superman
    Gal Gadot: Diana Prince / Wonder Woman
    Ezra Miller: Barry Allen / Flash
    Jason Momoa: Arthur Curry / Aquaman
    Ray Fisher: Victor Stone / Cyborg
    Ciarán Hinds: Steppenwolf
    Amy Adams: Lois Lane
    Jeremy Irons: Alfred Pennyworth
    Diane Lane: Martha Kent
    J. K. Simmons: Comm. James Gordon
    Connie Nielsen: Regina Hippolyta
    Robin Wright: Generale Antiope



Migliaia di anni fa il diabolico Steppenwolf e il suo feroce esercito di alieni insettoidi, attaccarono la Terra nel tentativo di espandere sempre di più il proprio potere nell'Universo, ma l'orda aliena venne respinta dalle forze congiunte di Amazzoni, Atlantidei, divinità greche, Lanterne Verdi e uomini..................



Fueled by his restored faith in humanity and inspired by Superman's selfless act, Bruce Wayne enlists the help of his newfound ally, Diana Prince, to face an even greater enemy. ...............









[spoiler]
General
Unique ID                                : 51543044121153188968264456875054056842 (0x26C6D44717973A125BE8C438C0A1C58A)
Complete name                            : Justice League (2017).720p.H264.ita.eng.sub.NUita.eng-MIRCrew\Justice League (2017).720p.H264.ita.eng.sub.ita.eng-MIRCrew.mkv
Format                                   : Matroska
Format version                           : Version 2
File size                                : 2.30 GiB
Duration                                 : 2h 0mn
Overall bit rate                         : 2 744 Kbps
Movie name                               : MIRCrew
Encoded date                             : UTC 2018-03-06 10:31:15
Writing application                      : Lavf54.63.100
Writing library                          : Lavf54.63.100
COPYRIGHT                                : MIRCrew-iCN

Video
ID                                       : 1
Format                                   : AVC
Format/Info                              : Advanced Video Codec
Format profile                           : [email protected]
Format settings, CABAC                   : Yes
Format settings, ReFrames                : 2 frames
Codec ID                                 : V_MPEG4/ISO/AVC
Duration                                 : 2h 0mn
Bit rate                                 : 1 850 Kbps
Width                                    : 1 280 pixels
Height                                   : 720 pixels
Display aspect ratio                     : 16:9
Frame rate mode                          : Variable
Frame rate                               : 23.976 fps
Color space                              : YUV
Chroma subsampling                       : 4:2:0
Bit depth                                : 8 bits
Scan type                                : Progressive
Bits/(Pixel*Frame)                       : 0.084
Stream size                              : 1.50 GiB (65%)
Writing library                          : x264 core 130 r2273
Encoding settings                        : cabac=1 / ref=2 / deblock=1:0:0 / analyse=0x1:0x131 / me=hex / subme=7 / psy=1 / psy_rd=1.00:0.00 / mixed_ref=0 / me_range=16 / chroma_me=1 / trellis=1 / 8x8dct=0 / cqm=0 / deadzone=21,11 / fast_pskip=1 / chroma_qp_offset=-2 / threads=3 / lookahead_threads=1 / sliced_threads=0 / nr=0 / decimate=1 / interlaced=0 / bluray_compat=0 / constrained_intra=0 / bframes=4 / b_pyramid=0 / b_adapt=1 / b_bias=0 / direct=3 / weightb=1 / open_gop=0 / weightp=2 / keyint=230 / keyint_min=23 / scenecut=40 / intra_refresh=0 / rc_lookahead=40 / rc=abr / mbtree=1 / bitrate=1850 / ratetol=1.0 / qcomp=0.60 / qpmin=10 / qpmax=69 / qpstep=4 / vbv_maxrate=24000 / vbv_bufsize=24000 / nal_hrd=none / ip_ratio=1.40 / aq=1:1.00
Language                                 : Italian
Default                                  : Yes
Forced                                   : No
DURATION                                 : 02:00:02.571000000
NUMBER_OF_FRAMES                         : 172689
NUMBER_OF_BYTES                          : 13437566381
_STATISTICS_WRITING_APP                  : mkvmerge v15.0.0 ('Duel with the Devil') 64-bit
_STATISTICS_WRITING_DATE_UTC             : 2018-03-04 15:48:21
_STATISTICS_TAGS                         : BPS DURATION NUMBER_OF_FRAMES NUMBER_OF_BYTES

Audio #1
ID                                       : 2
Format                                   : AC-3
Format/Info                              : Audio Coding 3
Mode extension                           : CM (complete main)
Codec ID                                 : A_AC3
Duration                                 : 2h 0mn
Bit rate mode                            : Constant
Bit rate                                 : 448 Kbps
Channel(s)                               : 6 channels
Channel positions                        : Front: L C R, Side: L R, LFE
Sampling rate                            : 48.0 KHz
Bit depth                                : 16 bits
Compression mode                         : Lossy
Delay relative to video                  : 1mn 5s
Stream size                              : 385 MiB (16%)
Language                                 : Italian
Default                                  : Yes
Forced                                   : No
DURATION                                 : 02:00:02.624000000
NUMBER_OF_FRAMES                         : 225082
NUMBER_OF_BYTES                          : 403346944
_STATISTICS_WRITING_APP                  : mkvmerge v15.0.0 ('Duel with the Devil') 64-bit
_STATISTICS_WRITING_DATE_UTC             : 2018-03-04 15:48:21
_STATISTICS_TAGS                         : BPS DURATION NUMBER_OF_FRAMES NUMBER_OF_BYTES

Audio #2
ID                                       : 3
Format                                   : AC-3
Format/Info                              : Audio Coding 3
Mode extension                           : CM (complete main)
Codec ID                                 : A_AC3
Duration                                 : 2h 0mn
Bit rate mode                            : Constant
Bit rate                                 : 448 Kbps
Channel(s)                               : 6 channels
Channel positions                        : Front: L C R, Side: L R, LFE
Sampling rate                            : 48.0 KHz
Bit depth                                : 16 bits
Compression mode                         : Lossy
Delay relative to video                  : 1mn 5s
Stream size                              : 385 MiB (16%)
Language                                 : English
Default                                  : No
Forced                                   : No
DURATION                                 : 02:00:02.614000000
NUMBER_OF_FRAMES                         : 675245
NUMBER_OF_BYTES                          : 1358593008
_STATISTICS_WRITING_APP                  : mkvmerge v15.0.0 ('Duel with the Devil') 64-bit
_STATISTICS_WRITING_DATE_UTC             : 2018-03-04 15:48:21
_STATISTICS_TAGS                         : BPS DURATION NUMBER_OF_FRAMES NUMBER_OF_BYTES

Menu
00:00:00.000                             : :Chapter 01
00:10:56.155                             : :Chapter 02
00:19:16.489                             : :Chapter 03
00:30:41.673                             : :Chapter 04
00:40:19.667                             : :Chapter 05
00:49:56.535                             : :Chapter 06
01:01:26.892                             : :Chapter 07
01:09:41.552                             : :Chapter 08
01:19:18.587                             : :Chapter 09
01:30:34.512                             : :Chapter 10
01:40:33.569                             : :Chapter 11
01:48:43.058                             : :Chapter 12




[/spoiler]




Category:Movies > HD 720p
Lang:English  English
Total Size:2.30 GB
Info Hash:e9acaff353ce7592e2276df963ff605edf4a4bbb
Added By:robbyrs
Date Added:07-03-2018 10:23:28

Files

File List: 
 File Size
Justice League (2017).720p.H264.ita.eng.sub.ita.eng-MIRCrew.eng.srt102.06 kB
Justice League (2017).720p.H264.ita.eng.sub.ita.eng-MIRCrew.mkv2.30 GB
Justice League (2017).720p.H264.ita.eng.sub.ita.eng-MIRCrew.NUita.srt100.40 kB
Justice League (2017).720p.H264.ita.eng.sub.ita.eng-MIRCrew.srt1.54 kB
MIRCrew-ilCorSaRoNeRo.txt53.00 B



Comments

There are currently no comments. Be the first one to write something !