Warning! Use a VPN When Downloading Torrents!
Your IP Address is Location is United States
Your Internet Provider is tracking your torrent activity! Hide your IP ADDRESS with a VPN!
We strongly recommend using Trust.Zone VPN to anonymize your torrenting. It's FREE!
Get VPN Now for FREE!



Download Torrent "April Fool's Day (1986)"

IMDB Details




Download Torrent (Magnet)
Download Torrent (File)
Seeds: 18
Leechers: 7
Completed: 46 
Last Checked: 13-03-2018 16:55:44

Title:April Fool's Day (1986)

fiveofseven Classic Encodes Presents...

PLOT - Nine college students staying at a friend's remote island mansion 
begin to fall victim to an unseen murderer over the April Fool's Day weekend.

Just an old torrent being brought here.


Encoder: fiveofseven
Source: DVD
Rating: R
Genre: Horror, Mystery
Subtitles: English (Embedded)

Unique ID                                : 179368603420319391103467729190754592080 (0x86F122EDCC50E38C84F2DE14E89E2550)
Complete name                            : April Fools Day 86.mkv
Format                                   : Matroska
Format version                           : Version 2
File size                                : 1.40 GiB
Duration                                 : 1h 29mn
Overall bit rate                         : 2 250 Kbps
Encoded date                             : UTC 2013-08-24 02:48:20
Writing application                      : mkvmerge v6.2.0 ('Promised Land') built on Apr 28 2013 12:22:01
Writing library                          : libebml v1.3.0 + libmatroska v1.4.0

ID                                       : 1
Format                                   : AVC
Format/Info                              : Advanced Video Codec
Format profile                           : [email protected]
Format settings, CABAC                   : Yes
Format settings, ReFrames                : 4 frames
Codec ID                                 : V_MPEG4/ISO/AVC
Duration                                 : 1h 29mn
Bit rate                                 : 1 799 Kbps
Width                                    : 720 pixels
Height                                   : 304 pixels
Display aspect ratio                     : 2.35:1
Frame rate mode                          : Constant
Frame rate                               : 23.976 fps
Color space                              : YUV
Chroma subsampling                       : 4:2:0
Bit depth                                : 8 bits
Scan type                                : Progressive
Bits/(Pixel*Frame)                       : 0.343
Stream size                              : 1.09 GiB (78%)
Writing library                          : x264 core 133 r2334 a3ac64b
Default                                  : Yes
Forced                                   : No

ID                                       : 2
Format                                   : AC-3
Format/Info                              : Audio Coding 3
Mode extension                           : CM (complete main)
Format settings, Endianness              : Big
Codec ID                                 : A_AC3
Duration                                 : 1h 29mn
Bit rate mode                            : Constant
Bit rate                                 : 448 Kbps
Channel count                            : 6 channels
Channel positions                        : Front: L C R, Side: L R, LFE
Sampling rate                            : 48.0 KHz
Bit depth                                : 16 bits
Compression mode                         : Lossy
Delay relative to video                  : 18ms
Stream size                              : 285 MiB (20%)
Language                                 : English
Default                                  : Yes
Forced                                   : No

ID                                       : 3
Format                                   : VobSub
Muxing mode                              : zlib
Codec ID                                 : S_VOBSUB
Codec ID/Info                            : The same subtitle format used on DVDs
Title                                    : English - (Closed Caption/Normal Size Char)
Language                                 : English
Default                                  : No
Forced                                   : No

Category:Movies > X264/H264
Lang:English  English
Total Size:1.50 GB
Info Hash:2cd79f370e17210f86fab482fcaa0c157f08d8c6
Added By:fiveofseven
Date Added:13-03-2018 16:55:41



File List: 
 File Size
April Fools Day 86.mkv1.50 GB


There are currently no comments. Be the first one to write something !

Disclaimer: None of the files shown here are actually hosted or transmitted by this server. The links are provided solely by this site's users. The site moderation is also a service provided by the site's users. The administrator of this site (ettv.tv) cannot be held responsible for what its users post, or any other actions of its users. You may not use this site to distribute or download any material when you do not have the legal rights to do so. It is your own responsibility to adhere to these terms.